Torrent details for "Blood.Of.Zeus.S02.720p.x264.NF.MoviesMod"    Log in to bookmark

Torrent details
Cover
Download
Torrent rating (5 rated)
Controls:
Category:
Language:
English English
Total Size:
1.90 GB
Info Hash:
4cfeccbca5a9c5b15a94f0d505de707483e87571
Added By:
Added:  
10-05-2024 16:41
Stats:
| Update
wide



Thanks for rating :
sdev88 (5), simi588:_male: (5), thomasanderson (5), KingRagnar:_turtle: (5), Anarchist2024 (5),

Title:
Genre:
Animation, Action, Fantasy
Runtime:
30 min    -    Rating: 8.6
Director:
n/A
Plot:
A commoner living in ancient Greece, Heron discovers his true heritage as a son of Zeus, and his purpose: to save the world from a demonic army.

Description
wide
General
Unique ID : 107578777064958693116309164090391210358 (0x50EEEB37541A22EFDB24A5E067832976)
Complete name : D:\Blood.Of.Zeus.S02.720p.x264.NF.MoviesMod\Blood.Of.Zeus.S02E01.A.Shadow.Emerges.720p.x264.NF.Msubs.MoviesMod.mkv
Format : Matroska
Format version : Version 4
File size : 251 MiB
Duration : 31 min 2 s
Overall bit rate : 1 131 kb/s
Frame rate : 24.000 FPS
Movie name : Blood.Of.Zeus.S02E01.A.Shadow.Emerges.720p.x264.Hindi.Japanese.English.Msubs.MoviesMod.org
Encoded date : 2024-05-10 15:09:46 UTC
Writing application : mkvmerge v84.0 ('Sleeper') 64-bit
Writing library : libebml v1.4.5 + libmatroska v1.7.1 / Lavf58.29.100

Video
ID : 1
Format : AVC
Format/Info : Advanced Video Codec
Format profile : High@L3.1
Format settings : CABAC / 4 Ref Frames
Format settings, CABAC : Yes
Format settings, Reference frames : 4 frames
Codec ID : V_MPEG4/ISO/AVC
Duration : 31 min 2 s
Bit rate : 1 000 kb/s
Width : 1 280 pixels
Height : 720 pixels
Display aspect ratio : 16:9
Frame rate mode : Constant
Frame rate : 24.000 FPS
Color space : YUV
Chroma subsampling : 4:2:0
Bit depth : 8 bits
Scan type : Progressive
Bits/(Pixel*Frame) : 0.045
Stream size : 222 MiB (88%)
Writing library : x264 core 157 r2935 545de2f
Encoding settings : cabac=1 / ref=3 / deblock=1:0:0 / analyse=0x3:0x113 / me=hex / subme=7 / psy=1 / psy_rd=1.00:0.00 / mixed_ref=1 / me_range=16 / chroma_me=1 / trellis=1 / 8x8dct=1 / cqm=0 / deadzone=21,11 / fast_pskip=1 / chroma_qp_offset=-2 / threads=22 / lookahead_threads=3 / sliced_threads=0 / nr=0 / decimate=1 / interlaced=0 / bluray_compat=0 / constrained_intra=0 / bframes=3 / b_pyramid=2 / b_adapt=1 / b_bias=0 / direct=1 / weightb=1 / open_gop=0 / weightp=2 / keyint=240 / keyint_min=24 / scenecut=40 / intra_refresh=0 / rc_lookahead=40 / rc=2pass / mbtree=1 / bitrate=1000 / ratetol=1.0 / qcomp=0.60 / qpmin=0 / qpmax=69 / qpstep=4 / cplxblur=20.0 / qblur=0.5 / ip_ratio=1.40 / aq=1:1.00
Default : Yes
Forced : No
Color range : Limited
Color primaries : BT.709
Transfer characteristics : BT.709
Matrix coefficients : BT.709

Audio
ID : 2
Format : AAC LC SBR
Format/Info : Advanced Audio Codec Low Complexity with Spectral Band Replication
Commercial name : HE-AAC
Format settings : NBC
Codec ID : A_AAC-5
Duration : 31 min 2 s
Bit rate : 128 kb/s
Channel(s) : 6 channels
Channel layout : C L R Ls Rs LFE
Sampling rate : 48.0 kHz
Frame rate : 23.438 FPS (2048 SPF)
Compression mode : Lossy
Delay relative to video : -105 ms
Stream size : 28.4 MiB (11%)
Language : English
Default : No
Forced : No

Text #1
ID : 3
Format : UTF-8
Codec ID : S_TEXT/UTF8
Codec ID/Info : UTF-8 Plain Text
Duration : 29 min 59 s
Bit rate : 1 b/s
Frame rate : 0.003 FPS
Count of elements : 6
Stream size : 245 Bytes (0%)
Language : English
Default : Yes
Forced : No

Text #2
ID : 4
Format : UTF-8
Codec ID : S_TEXT/UTF8
Codec ID/Info : UTF-8 Plain Text
Duration : 29 min 59 s
Bit rate : 20 b/s
Frame rate : 0.081 FPS
Count of elements : 146
Stream size : 4.40 KiB (0%)
Language : English
Default : Yes
Forced : No

Text #3
ID : 5
Format : UTF-8
Codec ID : S_TEXT/UTF8
Codec ID/Info : UTF-8 Plain Text
Duration : 29 min 59 s
Bit rate : 31 b/s
Frame rate : 0.086 FPS
Count of elements : 154
Stream size : 6.87 KiB (0%)
Language : Arabic
Default : Yes
Forced : No

Text #4
ID : 6
Format : UTF-8
Codec ID : S_TEXT/UTF8
Codec ID/Info : UTF-8 Plain Text
Duration : 29 min 59 s
Bit rate : 17 b/s
Frame rate : 0.083 FPS
Count of elements : 149
Stream size : 3.75 KiB (0%)
Language : Chinese
Default : Yes
Forced : No

Text #5
ID : 7
Format : UTF-8
Codec ID : S_TEXT/UTF8
Codec ID/Info : UTF-8 Plain Text
Duration : 29 min 59 s
Bit rate : 17 b/s
Frame rate : 0.081 FPS
Count of elements : 146
Stream size : 3.90 KiB (0%)
Language : Chinese
Default : Yes
Forced : No

Text #6
ID : 8
Format : UTF-8
Codec ID : S_TEXT/UTF8
Codec ID/Info : UTF-8 Plain Text
Duration : 29 min 59 s
Bit rate : 19 b/s
Frame rate : 0.081 FPS
Count of elements : 146
Stream size : 4.38 KiB (0%)
Language : Spanish
Default : Yes
Forced : No

Text #7
ID : 9
Format : UTF-8
Codec ID : S_TEXT/UTF8
Codec ID/Info : UTF-8 Plain Text
Duration : 29 min 59 s
Bit rate : 19 b/s
Frame rate : 0.081 FPS
Count of elements : 146
Stream size : 4.33 KiB (0%)
Language : Spanish
Default : Yes
Forced : No

Text #8
ID : 10
Format : UTF-8
Codec ID : S_TEXT/UTF8
Codec ID/Info : UTF-8 Plain Text
Duration : 29 min 59 s
Bit rate : 21 b/s
Frame rate : 0.082 FPS
Count of elements : 147
Stream size : 4.66 KiB (0%)
Language : Indonesian
Default : Yes
Forced : No

Text #9
ID : 11
Format : UTF-8
Codec ID : S_TEXT/UTF8
Codec ID/Info : UTF-8 Plain Text
Duration : 29 min 59 s
Bit rate : 19 b/s
Frame rate : 0.081 FPS
Count of elements : 145
Stream size : 4.23 KiB (0%)
Language : Japanese
Default : Yes
Forced : No

Text #10
ID : 12
Format : UTF-8
Codec ID : S_TEXT/UTF8
Codec ID/Info : UTF-8 Plain Text
Duration : 27 min 59 s
Bit rate : 25 b/s
Frame rate : 0.087 FPS
Count of elements : 146
Stream size : 5.26 KiB (0%)
Language : Korean
Default : Yes
Forced : No

Text #11
ID : 13
Format : UTF-8
Codec ID : S_TEXT/UTF8
Codec ID/Info : UTF-8 Plain Text
Duration : 29 min 59 s
Bit rate : 20 b/s
Frame rate : 0.080 FPS
Count of elements : 144
Stream size : 4.59 KiB (0%)
Language : Romanian
Default : Yes
Forced : No

Text #12
ID : 14
Format : UTF-8
Codec ID : S_TEXT/UTF8
Codec ID/Info : UTF-8 Plain Text
Duration : 29 min 59 s
Bit rate : 32 b/s
Frame rate : 0.082 FPS
Count of elements : 147
Stream size : 7.16 KiB (0%)
Language : Russian
Default : Yes
Forced : No

Text #13
ID : 15
Format : UTF-8
Codec ID : S_TEXT/UTF8
Codec ID/Info : UTF-8 Plain Text
Duration : 29 min 59 s
Bit rate : 23 b/s
Frame rate : 0.083 FPS
Count of elements : 150
Stream size : 5.16 KiB (0%)
Language : English
Default : Yes
Forced : No

Text #14
ID : 16
Format : UTF-8
Codec ID : S_TEXT/UTF8
Codec ID/Info : UTF-8 Plain Text
Duration : 29 min 59 s
Bit rate : 19 b/s
Frame rate : 0.081 FPS
Count of elements : 146
Stream size : 4.36 KiB (0%)
Language : English
Default : Yes
Forced : No

Text #15
ID : 17
Format : UTF-8
Codec ID : S_TEXT/UTF8
Codec ID/Info : UTF-8 Plain Text
Duration : 29 min 59 s
Bit rate : 19 b/s
Frame rate : 0.081 FPS
Count of elements : 145
Stream size : 4.29 KiB (0%)
Language : Czech
Default : Yes
Forced : No

Text #16
ID : 18
Format : UTF-8
Codec ID : S_TEXT/UTF8
Codec ID/Info : UTF-8 Plain Text
Duration : 29 min 59 s
Bit rate : 19 b/s
Frame rate : 0.080 FPS
Count of elements : 144
Stream size : 4.30 KiB (0%)
Language : Danish
Default : Yes
Forced : No

Text #17
ID : 19
Format : UTF-8
Codec ID : S_TEXT/UTF8
Codec ID/Info : UTF-8 Plain Text
Duration : 29 min 59 s
Bit rate : 20 b/s
Frame rate : 0.079 FPS
Count of elements : 142
Stream size : 4.56 KiB (0%)
Language : German
Default : Yes
Forced : No

Text #18
ID : 20
Format : UTF-8
Codec ID : S_TEXT/UTF8
Codec ID/Info : UTF-8 Plain Text
Duration : 29 min 59 s
Bit rate : 20 b/s
Frame rate : 0.079 FPS
Count of elements : 142
Stream size : 4.49 KiB (0%)
Language : French
Default : Yes
Forced : No

Text #19
ID : 21
Format : UTF-8
Codec ID : S_TEXT/UTF8
Codec ID/Info : UTF-8 Plain Text
Duration : 29 min 59 s
Bit rate : 35 b/s
Frame rate : 0.081 FPS
Count of elements : 145
Stream size : 7.83 KiB (0%)
Language : Greek
Default : Yes
Forced : No

Text #20
ID : 22
Format : UTF-8
Codec ID : S_TEXT/UTF8
Codec ID/Info : UTF-8 Plain Text
Duration : 29 min 59 s
Bit rate : 30 b/s
Frame rate : 0.081 FPS
Count of elements : 146
Stream size : 6.71 KiB (0%)
Language : Hebrew
Default : Yes
Forced : No

Text #21
ID : 23
Format : UTF-8
Codec ID : S_TEXT/UTF8
Codec ID/Info : UTF-8 Plain Text
Duration : 29 min 59 s
Bit rate : 18 b/s
Frame rate : 0.078 FPS
Count of elements : 140
Stream size : 3.99 KiB (0%)
Language : Croatian
Default : Yes
Forced : No

Text #22
ID : 24
Format : UTF-8
Codec ID : S_TEXT/UTF8
Codec ID/Info : UTF-8 Plain Text
Duration : 29 min 59 s
Bit rate : 20 b/s
Frame rate : 0.082 FPS
Count of elements : 147
Stream size : 4.43 KiB (0%)
Language : Italian
Default : Yes
Forced : No

Text #23
ID : 25
Format : UTF-8
Codec ID : S_TEXT/UTF8
Codec ID/Info : UTF-8 Plain Text
Duration : 29 min 58 s
Bit rate : 20 b/s
Frame rate : 0.079 FPS
Count of elements : 143
Stream size : 4.52 KiB (0%)
Language : Hungarian
Default : Yes
Forced : No

Text #24
ID : 26
Format : UTF-8
Codec ID : S_TEXT/UTF8
Codec ID/Info : UTF-8 Plain Text
Duration : 29 min 59 s
Bit rate : 19 b/s
Frame rate : 0.080 FPS
Count of elements : 144
Stream size : 4.27 KiB (0%)
Language : Dutch
Default : Yes
Forced : No

Text #25
ID : 27
Format : UTF-8
Codec ID : S_TEXT/UTF8
Codec ID/Info : UTF-8 Plain Text
Duration : 29 min 59 s
Bit rate : 19 b/s
Frame rate : 0.078 FPS
Count of elements : 140
Stream size : 4.19 KiB (0%)
Language : Norwegian Bokmal
Default : Yes
Forced : No

Text #26
ID : 28
Format : UTF-8
Codec ID : S_TEXT/UTF8
Codec ID/Info : UTF-8 Plain Text
Duration : 29 min 59 s
Bit rate : 20 b/s
Frame rate : 0.078 FPS
Count of elements : 140
Stream size : 4.43 KiB (0%)
Language : Polish
Default : Yes
Forced : No

Text #27
ID : 29
Format : UTF-8
Codec ID : S_TEXT/UTF8
Codec ID/Info : UTF-8 Plain Text
Duration : 29 min 59 s
Bit rate : 20 b/s
Frame rate : 0.082 FPS
Count of elements : 148
Stream size : 4.45 KiB (0%)
Language : Portuguese
Default : Yes
Forced : No

Text #28
ID : 30
Format : UTF-8
Codec ID : S_TEXT/UTF8
Codec ID/Info : UTF-8 Plain Text
Duration : 29 min 59 s
Bit rate : 19 b/s
Frame rate : 0.080 FPS
Count of elements : 144
Stream size : 4.35 KiB (0%)
Language : Portuguese
Default : Yes
Forced : No

Text #29
ID : 31
Format : UTF-8
Codec ID : S_TEXT/UTF8
Codec ID/Info : UTF-8 Plain Text
Duration : 29 min 59 s
Bit rate : 19 b/s
Frame rate : 0.075 FPS
Count of elements : 135
Stream size : 4.34 KiB (0%)
Language : Finnish
Default : Yes
Forced : No

Text #30
ID : 32
Format : UTF-8
Codec ID : S_TEXT/UTF8
Codec ID/Info : UTF-8 Plain Text
Duration : 29 min 59 s
Bit rate : 19 b/s
Frame rate : 0.072 FPS
Count of elements : 130
Stream size : 4.35 KiB (0%)
Language : Swedish
Default : Yes
Forced : No

Text #31
ID : 33
Format : UTF-8
Codec ID : S_TEXT/UTF8
Codec ID/Info : UTF-8 Plain Text
Duration : 29 min 59 s
Bit rate : 51 b/s
Frame rate : 0.081 FPS
Count of elements : 146
Stream size : 11.3 KiB (0%)
Language : Thai
Default : Yes
Forced : No

Text #32
ID : 34
Format : UTF-8
Codec ID : S_TEXT/UTF8
Codec ID/Info : UTF-8 Plain Text
Duration : 29 min 59 s
Bit rate : 20 b/s
Frame rate : 0.077 FPS
Count of elements : 139
Stream size : 4.48 KiB (0%)
Language : Turkish
Default : Yes
Forced : No

Text #33
ID : 35
Format : UTF-8
Codec ID : S_TEXT/UTF8
Codec ID/Info : UTF-8 Plain Text
Duration : 29 min 58 s
Bit rate : 32 b/s
Frame rate : 0.081 FPS
Count of elements : 145
Stream size : 7.10 KiB (0%)
Language : Ukrainian
Default : Yes
Forced : No

Text #34
ID : 36
Format : UTF-8
Codec ID : S_TEXT/UTF8
Codec ID/Info : UTF-8 Plain Text
Duration : 29 min 58 s
Bit rate : 27 b/s
Frame rate : 0.081 FPS
Count of elements : 146
Stream size : 6.14 KiB (0%)
Language : Vietnamese
Default : Yes
Forced : No


Image error

  User comments    Sort newest first

by Guest-3958
    on 2024-05-10 17:13:47
avatarthank you i have waited 4 years for this
4 |
:) :( :D :P :-) B) 8o :? 8) ;) :-* :-( :| O:-D Party Pirates Yuk Facepalm :-@ :o) Pacman Shit Alien eyes Ass Warn Help Bad Love Joystick Boom Eggplant Floppy TV Ghost Note Msg

CAPTCHA Image 
Anonymous comments have a moderation delay and show up after 15 minutes
by Guest-2053
    on 2024-05-10 19:42:14
avatarmany many thanks - it's so good that you are getting these series for us.
3 |
:) :( :D :P :-) B) 8o :? 8) ;) :-* :-( :| O:-D Party Pirates Yuk Facepalm :-@ :o) Pacman Shit Alien eyes Ass Warn Help Bad Love Joystick Boom Eggplant Floppy TV Ghost Note Msg

CAPTCHA Image 
Anonymous comments have a moderation delay and show up after 15 minutes
by Guest-3982
    on 2024-05-15 01:19:24
avatarhi. just wondering if you will release the 1080p version?
2 |
:) :( :D :P :-) B) 8o :? 8) ;) :-* :-( :| O:-D Party Pirates Yuk Facepalm :-@ :o) Pacman Shit Alien eyes Ass Warn Help Bad Love Joystick Boom Eggplant Floppy TV Ghost Note Msg

CAPTCHA Image 
Anonymous comments have a moderation delay and show up after 15 minutes
by platypusp:_verified_uploader::_male:
    on 2024-05-16 01:56:17
avatarNo.This is best you will get from me.
Liked by - Anarchist2024

Post anonymous comment
  • Comments need intelligible text (not only emojis or meaningless drivel).
  • No upload requests, visit the forum or message the uploader for this.
  • Use common sense and try to stay on topic.

  • :) :( :D :P :-) B) 8o :? 8) ;) :-* :-( :| O:-D Party Pirates Yuk Facepalm :-@ :o) Pacman Shit Alien eyes Ass Warn Help Bad Love Joystick Boom Eggplant Floppy TV Ghost Note Msg


    CAPTCHA Image 

    Anonymous comments have a moderation delay and show up after 15 minutes



      Sitefriends