Torrent details for "Noi siamo leggenda S01 (2023) Rus WEBRip ViruseProject"    Log in to bookmark

Torrent details
Cover
Download
Torrent rating (0 rated)
Controls:
Category:
Language:
Other / Multiple Other / Multiple
Total Size:
9.65 GB
Info Hash:
beb689011b6e1c24197829e3d02aa2f715dbc132
Added By:
viruse:_trusted_uploader::_junkie:  
Added:  
12-02-2024 14:06
Stats:
| Update
Genres:
wide



Title:
Genre:
Drama
Runtime:
n/A    -    Rating: 6.9
Director:
n/A
Plot:
The plot revolves around five high school teenagers - Massimo, Jean, Lin, Andrea and Greta - who discover they have different superpowers from each other. These powers become a metaphor for the difficulties and possibilities that teenagers face. Initially frightened by their new abilities, the protagonists learn to see in their powers an outlet to escape from their daily problems, such as inadequacy due to a sense of isolation, misunderstanding and incommunicability with their parents

Description
wide
Мы – легенды / Noi siamo leggenda / сезон 1

Image error

https://www.youtube.com/watch?v=nrh8KOkUMhI

https://www.imdb.com/title/tt30014245/

Image error
Image error
Image error
Image error

General
Complete name                            : Noi.siamo.leggenda.S01E01.WEBRip.ViruseProject.avi
Format                                   : AVI
Format/Info                              : Audio Video Interleave
File size                                : 757 MiB
Duration                                 : 1 h 4 min
Overall bit rate                         : 1 638 kb/s
Writing application                      : VirtualDubMod 1.5.10.2 (build 2540/release)
Writing library                          : VirtualDubMod build 2540/release

Video
ID                                       : 0
Format                                   : MPEG-4 Visual
Format profile                           : Advanced Simple@L5
Format settings                          : BVOP1
Format settings, BVOP                    : 1
Format settings, QPel                    : No
Format settings, GMC                     : No warppoints
Format settings, Matrix                  : Default (H.263)
Codec ID                                 : XVID
Codec ID/Hint                            : XviD
Duration                                 : 1 h 4 min
Bit rate                                 : 1 500 kb/s
Width                                    : 704 pixels
Height                                   : 352 pixels
Display aspect ratio                     : 2.000
Frame rate                               : 25.000 FPS
Color space                              : YUV
Chroma subsampling                       : 4:2:0
Bit depth                                : 8 bits
Scan type                                : Progressive
Compression mode                         : Lossy
Bits/(Pixel*Frame)                       : 0.242
Stream size                              : 694 MiB (92%)
Writing library                          : XviD 69

Audio
ID                                       : 1
Format                                   : MPEG Audio
Format version                           : Version 1
Format profile                           : Layer 3
Format settings                          : Joint stereo
Codec ID                                 : 55
Codec ID/Hint                            : MP3
Duration                                 : 1 h 4 min
Bit rate mode                            : Constant
Bit rate                                 : 128 kb/s
Channel(s)                               : 2 channels
Sampling rate                            : 48.0 kHz
Compression mode                         : Lossy
Stream size                              : 59.2 MiB (8%)
Alignment                                : Split across interleaves
Interleave, duration                     : 40  ms (1.00 video frame)
Interleave, preload duration             : 500  ms
Writing library                          : LAME3.100

  User comments    Sort newest first

No comments have been posted yet.



Post anonymous comment
  • Comments need intelligible text (not only emojis or meaningless drivel).
  • No upload requests, visit the forum or message the uploader for this.
  • Use common sense and try to stay on topic.

  • :) :( :D :P :-) B) 8o :? 8) ;) :-* :-( :| O:-D Party Pirates Yuk Facepalm :-@ :o) Pacman Shit Alien eyes Ass Warn Help Bad Love Joystick Boom Eggplant Floppy TV Ghost Note Msg


    CAPTCHA Image 

    Anonymous comments have a moderation delay and show up after 15 minutes



      Sitefriends