Torrent details for "Noi siamo leggenda S01 (2023) Rus 1080р WEBRip ViruseProject"    Log in to bookmark

Torrent details
Cover
Download
Torrent rating (0 rated)
Controls:
Category:
Language:
Other / Multiple Other / Multiple
Total Size:
29.50 GB
Info Hash:
7d8605d36e481bf364e1a373f18b9141e193999c
Added By:
viruse:_trusted_uploader::_junkie:  
Added:  
12-02-2024 14:01
Stats:
| Update
Genres:
wide



Title:
Genre:
Drama
Runtime:
n/A    -    Rating: 6.9
Director:
n/A
Plot:
The plot revolves around five high school teenagers - Massimo, Jean, Lin, Andrea and Greta - who discover they have different superpowers from each other. These powers become a metaphor for the difficulties and possibilities that teenagers face. Initially frightened by their new abilities, the protagonists learn to see in their powers an outlet to escape from their daily problems, such as inadequacy due to a sense of isolation, misunderstanding and incommunicability with their parents

Description
wide
Мы – легенды / Noi siamo leggenda / сезон 1

Image error

https://www.youtube.com/watch?v=nrh8KOkUMhI

https://www.imdb.com/title/tt30014245/

Image error
Image error
Image error
Image error

General
Unique ID                                : 183675262153083265654735039375210240088 (0x8A2E919919C15B45A0415631476CD858)
Complete name                            : Noi.siamo.leggenda.S01E01.1080p.WEBRip.ViruseProject.mkv
Format                                   : Matroska
Format version                           : Version 4
File size                                : 2.26 GiB
Duration                                 : 1 h 4 min
Overall bit rate                         : 5 010 kb/s
Encoded date                             : UTC 2024-02-12 06:55:44
Writing application                      : mkvmerge v8.3.0 ('Over the Horizon') 64bit
Writing library                          : libebml v1.3.1 + libmatroska v1.4.2

Video
ID                                       : 1
Format                                   : AVC
Format/Info                              : Advanced Video Codec
Format profile                           : Main@L4.1
Format settings                          : CABAC / 3 Ref Frames
Format settings, CABAC                   : Yes
Format settings, Reference frames        : 3 frames
Format settings, GOP                     : M=1, N=30
Codec ID                                 : V_MPEG4/ISO/AVC
Duration                                 : 1 h 4 min
Bit rate                                 : 4 818 kb/s
Width                                    : 1 920 pixels
Height                                   : 1 080 pixels
Display aspect ratio                     : 16:9
Frame rate mode                          : Constant
Frame rate                               : 25.000 FPS
Color space                              : YUV
Chroma subsampling                       : 4:2:0
Bit depth                                : 8 bits
Scan type                                : Progressive
Bits/(Pixel*Frame)                       : 0.093
Stream size                              : 2.18 GiB (96%)
Language                                 : English
Default                                  : Yes
Forced                                   : No

Audio
ID                                       : 2
Format                                   : AAC LC
Format/Info                              : Advanced Audio Codec Low Complexity
Codec ID                                 : A_AAC-2
Duration                                 : 1 h 4 min
Bit rate                                 : 192 kb/s
Channel(s)                               : 2 channels
Channel layout                           : L R
Sampling rate                            : 48.0 kHz
Frame rate                               : 46.875 FPS (1024 SPF)
Compression mode                         : Lossy
Stream size                              : 87.6 MiB (4%)
Title                                    : ViruseProject
Language                                 : Russian
Default                                  : Yes
Forced                                   : No

  User comments    Sort newest first

No comments have been posted yet.



Post anonymous comment
  • Comments need intelligible text (not only emojis or meaningless drivel).
  • No upload requests, visit the forum or message the uploader for this.
  • Use common sense and try to stay on topic.

  • :) :( :D :P :-) B) 8o :? 8) ;) :-* :-( :| O:-D Party Pirates Yuk Facepalm :-@ :o) Pacman Shit Alien eyes Ass Warn Help Bad Love Joystick Boom Eggplant Floppy TV Ghost Note Msg


    CAPTCHA Image 

    Anonymous comments have a moderation delay and show up after 15 minutes



      Sitefriends