Torrent details for "Spiderhead (2022)(FHD)(1080p)(x264)(Multi 6 lang)(MultiSub) PHDTeam"    Log in to bookmark

Torrent details
Cover
Download
Torrent rating (0 rated)
Controls:
Category:
Language:
Other / Multiple Other / Multiple
Total Size:
2.38 GB
Info Hash:
75f8f6cb9f4f632af4c33d129d3ebd418e0eac00
Added By:
Added:  
28-06-2022 18:39 (edited 28-06-2022 18:40) by pretorianpp:_trusted_uploader::_male::_sun:
Stats:
| Update



Similar torrents

Name 
DL
Uploader
Size 
S/L 
Added
800.47 MB
45,070
[225/17]
17/06/22 08:40
Uploaded by GalaxyRG:_trusted_uploader: Size 800.47 MBHealth [225/17]Added 17/06/22 08:40
-
2.84 GB
1,157
[60/6]
17/06/22 22:02
Uploaded by realDMDJ:_trusted_uploader: Size 2.84 GBHealth [60/6]Added 17/06/22 22:02
-
1.87 GB
13,627
[48/6]
17/06/22 08:03
Uploaded by TGxMovies:_trusted_uploader: Size 1.87 GBHealth [48/6]Added 17/06/22 08:03
-
1.41 GB
2,500
[31/4]
17/06/22 08:50
Uploaded by GalaxyRG:_trusted_uploader: Size 1.41 GBHealth [31/4]Added 17/06/22 08:50
-
1.40 GB
580
[26/8]
06/07/22 18:39
Uploaded by ZiroMB:_verified_uploader: Size 1.40 GBHealth [26/8]Added 06/07/22 18:39
-
11.65 GB
1,123
[13/7]
17/06/22 15:39
Uploaded by TGxMovies:_trusted_uploader: Size 11.65 GBHealth [13/7]Added 17/06/22 15:39
Genre:
Action, Crime, Drama, Sci-Fi, Thriller
Runtime:
106 min    -    Rating: n/A
Plot:
This is set in the near future, when convicts are offered the chance to volunteer as medical subjects in hopes of shortening their sentences. When one prisoner finds himself the test patient for a new pharmaceutical capable of generating feelings of love, he begins questioning the reality of his emotions and sets out to discover the truth.

Description
Image error


Image error
Image error

Image error

Movie Name: Spiderhead (2022)
IMDb Rating: 5.4/10
Quality: 1080p (WebDL)
Language: E-AC-3 5.1 640kb/s - English , Czech , Germany
E-AC-3 2.0 128 kb/s - Polish , Hungarian , Ukrainian
Subtitles: Multi
Director: Joseph Kosinski
Writers: George Saunders (based on the short story "Escape from Spiderhead" by) Rhett Reese (screenplay by)Paul Wernick (screenplay by)
Genres: Action | Crime | Drama |


In the near future, convicts are offered the chance to volunteer as medical subjects to shorten their sentence. One such subject for a new drug capable of generating feelings of love begins questioning the reality of his emotions.

Image error
Image error

Image error


Format                                   : Matroska
Format version                           : Version 4
File size                                : 2.38 GiB
Duration                                 : 1 h 47 min
Overall bit rate mode                    : Variable
Overall bit rate                         : 3 176 kb/s
Movie name                               : Spiderhead
Description                              : Vězeň zavřený v supermoderní věznici začíná pátrat po tom, k čemu má vlastně sloužit droga na ovládání emocí, kterou testuje pro geniálního farmaceuta.
Writing application                      : Lavf58.76.100
Writing library                          : Lavf58.76.100
ErrorDetectionType                       : Per level 1
DATE                                     : 2022

Video
ID                                       : 1
Format                                   : AVC
Format/Info                              : Advanced Video Codec
Format profile                           : High@L4
Format settings                          : CABAC / 4 Ref Frames
Format settings, CABAC                   : Yes
Format settings, Reference frames        : 4 frames
Codec ID                                 : V_MPEG4/ISO/AVC
Duration                                 : 1 h 47 min
Bit rate mode                            : Variable
Bit rate                                 : 1 321 kb/s
Maximum bit rate                         : 20.0 Mb/s
Width                                    : 1 920 pixels
Height                                   : 1 080 pixels
Display aspect ratio                     : 16:9
Frame rate mode                          : Constant
Frame rate                               : 24.000 FPS
Color space                              : YUV
Chroma subsampling                       : 4:2:0
Bit depth                                : 8 bits
Scan type                                : Progressive
Bits/(Pixel*Frame)                       : 0.027
Stream size                              : 1 013 MiB (42%)
Title                                    : 264:fmt=264:moovts=-1:fps=24:deps:par=auto@GPAC2.1-DEV-rev6242-g07e35adfb-HEAD
Writing library                          : x264 core 148 r2727 7d026e8
Encoding settings                        : cabac=1 / ref=4 / deblock=1:0:0 / analyse=0x3:0x111 / me=umh / subme=10 / psy=1 / psy_rd=1.00:0.00 / mixed_ref=1 / me_range=120 / chroma_me=1 / trellis=2 / 8x8dct=1 / cqm=0 / deadzone=21,11 / fast_pskip=1 / chroma_qp_offset=-2 / threads=8 / lookahead_threads=2 / sliced_threads=0 / nr=0 / decimate=1 / interlaced=0 / bluray_compat=0 / stitchable=1 / constrained_intra=0 / bframes=16 / b_pyramid=2 / b_adapt=2 / b_bias=0 / direct=3 / weightb=1 / open_gop=0 / weightp=2 / keyint=240 / keyint_min=121 / scenecut=0 / intra_refresh=0 / rc_lookahead=240 / rc=crf / mbtree=1 / crf=22.0 / qcomp=0.50 / qpmin=6 / qpmax=51 / qpstep=4 / vbv_maxrate=20000 / vbv_bufsize=25000 / crf_max=0.0 / nal_hrd=vbr / filler=0 / ip_ratio=1.40 / aq=1:0.80
Default                                  : Yes
Forced                                   : No
VENDOR_ID                                : [0][0][0][0]

Audio #1
ID                                       : 2
Format                                   : E-AC-3
Format/Info                              : Enhanced AC-3
Commercial name                          : Dolby Digital Plus
Codec ID                                 : A_EAC3
Duration                                 : 1 h 47 min
Bit rate mode                            : Constant
Bit rate                                 : 128 kb/s
Channel(s)                               : 2 channels
Channel layout                           : L R
Sampling rate                            : 48.0 kHz
Frame rate                               : 31.250 FPS (1536 SPF)
Bit depth                                : 32 bits
Compression mode                         : Lossy
Stream size                              : 98.2 MiB (4%)
Title                                    : čeština
Language                                 : Czech
Service kind                             : Complete Main
Default                                  : Yes
Forced                                   : No
VENDOR_ID                                : [0][0][0][0]

Audio #2
ID                                       : 3
Format                                   : E-AC-3
Format/Info                              : Enhanced AC-3
Commercial name                          : Dolby Digital Plus
Codec ID                                 : A_EAC3
Duration                                 : 1 h 47 min
Bit rate mode                            : Constant
Bit rate                                 : 128 kb/s
Channel(s)                               : 2 channels
Channel layout                           : L R
Sampling rate                            : 48.0 kHz
Frame rate                               : 31.250 FPS (1536 SPF)
Bit depth                                : 32 bits
Compression mode                         : Lossy
Stream size                              : 98.2 MiB (4%)
Title                                    : němčina
Language                                 : German
Service kind                             : Complete Main
Default                                  : No
Forced                                   : No
VENDOR_ID                                : [0][0][0][0]

Audio #3
ID                                       : 4
Format                                   : E-AC-3
Format/Info                              : Enhanced AC-3
Commercial name                          : Dolby Digital Plus
Codec ID                                 : A_EAC3
Duration                                 : 1 h 47 min
Bit rate mode                            : Constant
Bit rate                                 : 128 kb/s
Channel(s)                               : 2 channels
Channel layout                           : L R
Sampling rate                            : 48.0 kHz
Frame rate                               : 31.250 FPS (1536 SPF)
Bit depth                                : 32 bits
Compression mode                         : Lossy
Stream size                              : 98.2 MiB (4%)
Title                                    : angličtina [Originál]
Language                                 : English
Service kind                             : Complete Main
Default                                  : No
Forced                                   : No
VENDOR_ID                                : [0][0][0][0]

Audio #4
ID                                       : 5
Format                                   : E-AC-3
Format/Info                              : Enhanced AC-3
Commercial name                          : Dolby Digital Plus
Codec ID                                 : A_EAC3
Duration                                 : 1 h 47 min
Bit rate mode                            : Constant
Bit rate                                 : 128 kb/s
Channel(s)                               : 2 channels
Channel layout                           : L R
Sampling rate                            : 48.0 kHz
Frame rate                               : 31.250 FPS (1536 SPF)
Bit depth                                : 32 bits
Compression mode                         : Lossy
Stream size                              : 98.2 MiB (4%)
Title                                    : maďarština
Language                                 : Hungarian
Service kind                             : Complete Main
Default                                  : No
Forced                                   : No
VENDOR_ID                                : [0][0][0][0]

Audio #5
ID                                       : 6
Format                                   : E-AC-3
Format/Info                              : Enhanced AC-3
Commercial name                          : Dolby Digital Plus
Codec ID                                 : A_EAC3
Duration                                 : 1 h 47 min
Bit rate mode                            : Constant
Bit rate                                 : 640 kb/s
Channel(s)                               : 6 channels
Channel layout                           : L R C LFE Ls Rs
Sampling rate                            : 48.0 kHz
Frame rate                               : 31.250 FPS (1536 SPF)
Bit depth                                : 32 bits
Compression mode                         : Lossy
Stream size                              : 491 MiB (20%)
Title                                    : polština
Language                                 : Polish
Service kind                             : Complete Main
Default                                  : No
Forced                                   : No
VENDOR_ID                                : [0][0][0][0]

Audio #6
ID                                       : 7
Format                                   : E-AC-3
Format/Info                              : Enhanced AC-3
Commercial name                          : Dolby Digital Plus
Codec ID                                 : A_EAC3
Duration                                 : 1 h 47 min
Bit rate mode                            : Constant
Bit rate                                 : 640 kb/s
Channel(s)                               : 6 channels
Channel layout                           : L R C LFE Ls Rs
Sampling rate                            : 48.0 kHz
Frame rate                               : 31.250 FPS (1536 SPF)
Bit depth                                : 32 bits
Compression mode                         : Lossy
Stream size                              : 491 MiB (20%)
Title                                    : ukrajinština
Language                                 : Ukrainian
Service kind                             : Complete Main
Default                                  : No
Forced                                   : No
VENDOR_ID                                : [0][0][0][0]

Text #1
ID                                       : 8
Format                                   : UTF-8
Codec ID                                 : S_TEXT/UTF8
Codec ID/Info                            : UTF-8 Plain Text
Duration                                 : 1 h 45 min
Title                                    : čeština
Writing library                          : Lavc58.134.100 srt
Language                                 : Czech
Default                                  : Yes
Forced                                   : No

Text #2
ID                                       : 9
Format                                   : UTF-8
Codec ID                                 : S_TEXT/UTF8
Codec ID/Info                            : UTF-8 Plain Text
Duration                                 : 1 h 45 min
Title                                    : Czech [ForcedNarrative]
Writing library                          : Lavc58.134.100 srt
Language                                 : Czech
Default                                  : No
Forced                                   : No

Text #3
ID                                       : 10
Format                                   : UTF-8
Codec ID                                 : S_TEXT/UTF8
Codec ID/Info                            : UTF-8 Plain Text
Duration                                 : 1 h 45 min
Title                                    : němčina
Writing library                          : Lavc58.134.100 srt
Language                                 : German
Default                                  : No
Forced                                   : No

Text #4
ID                                       : 11
Format                                   : UTF-8
Codec ID                                 : S_TEXT/UTF8
Codec ID/Info                            : UTF-8 Plain Text
Duration                                 : 1 h 45 min
Title                                    : German [ForcedNarrative]
Writing library                          : Lavc58.134.100 srt
Language                                 : German
Default                                  : No
Forced                                   : No

Text #5
ID                                       : 12
Format                                   : UTF-8
Codec ID                                 : S_TEXT/UTF8
Codec ID/Info                            : UTF-8 Plain Text
Duration                                 : 1 h 42 min
Title                                    : angličtina [CC]
Writing library                          : Lavc58.134.100 srt
Language                                 : English
Default                                  : No
Forced                                   : No

Text #6
ID                                       : 13
Format                                   : UTF-8
Codec ID                                 : S_TEXT/UTF8
Codec ID/Info                            : UTF-8 Plain Text
Duration                                 : 1 h 45 min
Title                                    : maďarština
Writing library                          : Lavc58.134.100 srt
Language                                 : Hungarian
Default                                  : No
Forced                                   : No

Text #7
ID                                       : 14
Format                                   : UTF-8
Codec ID                                 : S_TEXT/UTF8
Codec ID/Info                            : UTF-8 Plain Text
Duration                                 : 1 h 45 min
Title                                    : Hungarian [ForcedNarrative]
Writing library                          : Lavc58.134.100 srt
Language                                 : Hungarian
Default                                  : No
Forced                                   : No

Text #8
ID                                       : 15
Format                                   : UTF-8
Codec ID                                 : S_TEXT/UTF8
Codec ID/Info                            : UTF-8 Plain Text
Duration                                 : 1 h 45 min
Title                                    : Polish [ForcedNarrative]
Writing library                          : Lavc58.134.100 srt
Language                                 : Polish
Default                                  : No
Forced                                   : No

Text #9
ID                                       : 16
Format                                   : UTF-8
Codec ID                                 : S_TEXT/UTF8
Codec ID/Info                            : UTF-8 Plain Text
Duration                                 : 1 h 45 min
Title                                    : polština
Writing library                          : Lavc58.134.100 srt
Language                                 : Polish
Default                                  : No
Forced                                   : No

Text #10
ID                                       : 17
Format                                   : UTF-8
Codec ID                                 : S_TEXT/UTF8
Codec ID/Info                            : UTF-8 Plain Text
Duration                                 : 1 h 45 min
Title                                    : Ukrainian [ForcedNarrative]
Writing library                          : Lavc58.134.100 srt
Language                                 : Ukrainian
Default                                  : No
Forced                                   : No

Text #11
ID                                       : 18
Format                                   : UTF-8
Codec ID                                 : S_TEXT/UTF8
Codec ID/Info                            : UTF-8 Plain Text
Duration                                 : 1 h 45 min
Title                                    : ukrajinština
Writing library                          : Lavc58.134.100 srt
Language                                 : Ukrainian
Default                                  : No
Forced                                   : No

Image error
Image error

  User comments    Sort newest first

No comments have been posted yet.



Post anonymous comment
  • Comments need intelligible text (not only emojis or meaningless drivel).
  • No upload requests, visit the forum or message the uploader for this.
  • Use common sense and try to stay on topic.

  • :) :( :D :P :-) B) 8o :? 8) ;) :-* :-( :| O:-D Party Pirates Yuk Facepalm :-@ :o) Pacman Shit Alien eyes Ass Warn Help Bad Love Joystick Boom Eggplant Floppy TV Ghost Note Msg


    CAPTCHA Image 

    Anonymous comments have a moderation delay and show up after 15 minutes



      Sitefriends