Torrent details for "Spiderhead.2022.1080p.NF.WEB-DL.HIN-ENG-TAM-TEL.DDP5.1.Atmos.HDR.HEVC-themoviesboss"    Log in to bookmark

Torrent details
Cover
Download
Torrent rating (0 rated)
Controls:
Category:
Language:
Other / Multiple Other / Multiple
Total Size:
3.99 GB
Info Hash:
7ea9cddce69c0b6429505964829580d0dbb3e7cb
Added By:
tmb001:_trusted_uploader:  
Added:  
17-06-2022 09:32
Stats:
| Update



Similar torrents

Name 
DL
Uploader
Size 
S/L 
Added
800.47 MB
45,070
[225/17]
17/06/22 08:40
Uploaded by GalaxyRG:_trusted_uploader: Size 800.47 MBHealth [225/17]Added 17/06/22 08:40
-
2.84 GB
1,157
[60/6]
17/06/22 22:02
Uploaded by realDMDJ:_trusted_uploader: Size 2.84 GBHealth [60/6]Added 17/06/22 22:02
-
1.87 GB
13,627
[48/6]
17/06/22 08:03
Uploaded by TGxMovies:_trusted_uploader: Size 1.87 GBHealth [48/6]Added 17/06/22 08:03
-
1.41 GB
2,500
[31/4]
17/06/22 08:50
Uploaded by GalaxyRG:_trusted_uploader: Size 1.41 GBHealth [31/4]Added 17/06/22 08:50
-
1.40 GB
580
[26/8]
06/07/22 18:39
Uploaded by ZiroMB:_verified_uploader: Size 1.40 GBHealth [26/8]Added 06/07/22 18:39
-
2.38 GB
371
[17/1]
28/06/22 18:39
Uploaded by pretorianpp:_trusted_uploader: Size 2.38 GBHealth [17/1]Added 28/06/22 18:39
Genre:
Action, Crime, Drama, Sci-Fi, Thriller
Runtime:
106 min    -    Rating: n/A
Plot:
This is set in the near future, when convicts are offered the chance to volunteer as medical subjects in hopes of shortening their sentences. When one prisoner finds himself the test patient for a new pharmaceutical capable of generating feelings of love, he begins questioning the reality of his emotions and sets out to discover the truth.

Description
Spiderhead.2022.1080p.NF.WEB-DL.HIN-ENG-TAM-TEL.DDP5.1.Atmos.HDR.HEVC-themoviesboss


Media Info


Format                                   : Matroska
Format version                           : Version 4
File size                                : 3.99 GiB
Duration                                 : 1 h 47 min
Overall bit rate                         : 5 320 kb/s
Movie name                               : Encoded By themoviesboss
Encoded date                             : UTC 2022-06-17 07:26:17
Writing application                      : mkvmerge
Writing library                          : libebml v1.4.2 + libmatroska v1.6.4

Video
ID                                       : 1
Format                                   : HEVC
Format/Info                              : High Efficiency Video Coding
Format profile                           : Main 10@L4@Main
HDR format                               : SMPTE ST 2086, HDR10 compatible
Codec ID                                 : V_MPEGH/ISO/HEVC
Duration                                 : 1 h 45 min
Bit rate                                 : 2 662 kb/s
Width                                    : 1 920 pixels
Height                                   : 1 080 pixels
Display aspect ratio                     : 16:9
Frame rate mode                          : Constant
Frame rate                               : 24.000 FPS
Color space                              : YUV
Chroma subsampling                       : 4:2:0 (Type 2)
Bit depth                                : 10 bits
Bits/(Pixel*Frame)                       : 0.053
Stream size                              : 1.97 GiB (49%)
Title                                    : themoviesboss
Language                                 : English
Default                                  : Yes
Forced                                   : No
Color range                              : Limited
Color primaries                          : BT.2020
Transfer characteristics                 : PQ
Matrix coefficients                      : BT.2020 non-constant
Mastering display color primaries        : Display P3
Mastering display luminance              : min: 0.0001 cd/m2, max: 1000 cd/m2
Maximum Content Light Level              : 756 cd/m2
Maximum Frame-Average Light Level        : 138 cd/m2

Audio #1
ID                                       : 2
Format                                   : E-AC-3
Format/Info                              : Enhanced AC-3
Commercial name                          : Dolby Digital Plus
Codec ID                                 : A_EAC3
Duration                                 : 1 h 47 min
Bit rate mode                            : Constant
Bit rate                                 : 640 kb/s
Channel(s)                               : 6 channels
Channel layout                           : L R C LFE Ls Rs
Sampling rate                            : 48.0 kHz
Frame rate                               : 31.250 FPS (1536 SPF)
Compression mode                         : Lossy
Stream size                              : 491 MiB (12%)
Title                                    : themoviesboss
Language                                 : Hindi
Service kind                             : Complete Main
Default                                  : Yes
Forced                                   : No

Audio #2
ID                                       : 3
Format                                   : E-AC-3 JOC
Format/Info                              : Enhanced AC-3 with Joint Object Coding
Commercial name                          : Dolby Digital Plus with Dolby Atmos
Codec ID                                 : A_EAC3
Duration                                 : 1 h 47 min
Bit rate mode                            : Constant
Bit rate                                 : 768 kb/s
Channel(s)                               : 6 channels
Channel layout                           : L R C LFE Ls Rs
Sampling rate                            : 48.0 kHz
Frame rate                               : 31.250 FPS (1536 SPF)
Compression mode                         : Lossy
Stream size                              : 589 MiB (14%)
Title                                    : themoviesboss
Language                                 : English
Service kind                             : Complete Main
Default                                  : No
Forced                                   : No
Complexity index                         : 16
Number of dynamic objects                : 15
Bed channel count                        : 1 channel
Bed channel configuration                : LFE

Audio #3
ID                                       : 4
Format                                   : E-AC-3
Format/Info                              : Enhanced AC-3
Commercial name                          : Dolby Digital Plus
Codec ID                                 : A_EAC3
Duration                                 : 1 h 47 min
Bit rate mode                            : Constant
Bit rate                                 : 640 kb/s
Channel(s)                               : 6 channels
Channel layout                           : L R C LFE Ls Rs
Sampling rate                            : 48.0 kHz
Frame rate                               : 31.250 FPS (1536 SPF)
Compression mode                         : Lossy
Stream size                              : 491 MiB (12%)
Title                                    : themoviesboss
Language                                 : Tamil
Service kind                             : Complete Main
Default                                  : No
Forced                                   : No

Audio #4
ID                                       : 5
Format                                   : E-AC-3
Format/Info                              : Enhanced AC-3
Commercial name                          : Dolby Digital Plus
Codec ID                                 : A_EAC3
Duration                                 : 1 h 47 min
Bit rate mode                            : Constant
Bit rate                                 : 640 kb/s
Channel(s)                               : 6 channels
Channel layout                           : L R C LFE Ls Rs
Sampling rate                            : 48.0 kHz
Frame rate                               : 31.250 FPS (1536 SPF)
Compression mode                         : Lossy
Stream size                              : 491 MiB (12%)
Title                                    : themoviesboss
Language                                 : Telugu
Service kind                             : Complete Main
Default                                  : No
Forced                                   : No

Text #1
ID                                       : 6
Format                                   : UTF-8
Codec ID                                 : S_TEXT/UTF8
Codec ID/Info                            : UTF-8 Plain Text
Duration                                 : 1 h 41 min
Bit rate                                 : 68 b/s
Count of elements                        : 1649
Stream size                              : 50.9 KiB (0%)
Title                                    : themoviesboss
Language                                 : English
Default                                  : No
Forced                                   : No

Text #2
ID                                       : 7
Format                                   : UTF-8
Codec ID                                 : S_TEXT/UTF8
Codec ID/Info                            : UTF-8 Plain Text
Duration                                 : 1 h 45 min
Bit rate                                 : 90 b/s
Count of elements                        : 1282
Stream size                              : 69.9 KiB (0%)
Title                                    : themoviesboss
Language                                 : Arabic
Default                                  : No
Forced                                   : No

Text #3
ID                                       : 8
Format                                   : UTF-8
Codec ID                                 : S_TEXT/UTF8
Codec ID/Info                            : UTF-8 Plain Text
Duration                                 : 1 h 45 min
Bit rate                                 : 44 b/s
Count of elements                        : 1254
Stream size                              : 34.2 KiB (0%)
Title                                    : themoviesboss
Language                                 : Czech
Default                                  : No
Forced                                   : No


Screenshots:


Image error
Image error
Image error
Image error
Image error
Image error
Image error


Don't Forget to Seed

  User comments    Sort newest first

No comments have been posted yet.



Post anonymous comment
  • Comments need intelligible text (not only emojis or meaningless drivel).
  • No upload requests, visit the forum or message the uploader for this.
  • Use common sense and try to stay on topic.

  • :) :( :D :P :-) B) 8o :? 8) ;) :-* :-( :| O:-D Party Pirates Yuk Facepalm :-@ :o) Pacman Shit Alien eyes Ass Warn Help Bad Love Joystick Boom Eggplant Floppy TV Ghost Note Msg


    CAPTCHA Image 

    Anonymous comments have a moderation delay and show up after 15 minutes



      Sitefriends