Torrent details for "Nash Bridges (2021) [Bengali Dub] 1080p WEB-DLRip Saicord"    Log in to bookmark

Torrent details
Please be advised this upload has ads cut or watermarked into the video. click here for more info
Cover
Download
Torrent rating (0 rated)
Controls:
Category:
Language:
Bengali Bengali
Total Size:
2.58 GB
Info Hash:
39bafdebeb707364bc721de63d241a95b0ef5e6b
Added By:
Added:  
06-01-2022 16:57
Views:
245
Health:
Seeds:
2
Leechers:
0
Completed:
13

Similar torrents

Name 
DL
Uploader
Size 
S/L 
Added
796.42 MB
27,735
[14/0]
29/11/21 06:09
Uploaded by GalaxyRG:_trusted_uploader: Size 796.42 MBHealth [14/0]Added 29/11/21 06:09
-
2.74 GB
10,652
[6/1]
29/11/21 06:35
Uploaded by TGxMovies:_trusted_uploader: Size 2.74 GBHealth [6/1]Added 29/11/21 06:35
-
1.40 GB
1,559
[4/0]
29/11/21 06:13
Uploaded by GalaxyRG:_trusted_uploader: Size 1.40 GBHealth [4/0]Added 29/11/21 06:13
-
925.18 MB
174
[3/3]
22/03/22 16:03
Uploaded by 1XCinema:_trusted_uploader: Size 925.18 MBHealth [3/3]Added 22/03/22 16:03
-
598.66 MB
925
[2/0]
29/11/21 06:50
Uploaded by TGxMovies:_trusted_uploader: Size 598.66 MBHealth [2/0]Added 29/11/21 06:50
-
991.09 MB
885
[1/0]
29/11/21 19:20
Uploaded by GalaxyRG:_trusted_uploader: Size 991.09 MBHealth [1/0]Added 29/11/21 19:20
Title:
Genre:
Crime, Drama
Runtime:
82 min    -    Rating: 7.6
Director:
Plot:
Nash Bridges continues to run San Francisco's SIU in 2020 while confronting a changing city, a new boss, and a world in which police work focuses on modern data-crunching and predictive policing. Although the world around him has changed, Nash hasn't.

Description
Image error

https://youtu.be/sm2auVbuvTs

Image error
Image error
Image error
Image error

Video
ID                                       : 1
Format                                   : AVC
Format/Info                              : Advanced Video Codec
Format profile                           : High@L5.1
Format settings                          : CABAC / 3 Ref Frames
Format settings, CABAC                   : Yes
Format settings, Reference frames        : 3 frames
Format settings, GOP                     : M=1, N=30
Codec ID                                 : avc1
Codec ID/Info                            : Advanced Video Coding
Duration                                 : 1 h 24 min
Bit rate                                 : 4 191 kb/s
Width                                    : 1 920 pixels
Height                                   : 1 080 pixels
Display aspect ratio                     : 16:9
Frame rate mode                          : Constant
Frame rate                               : 23.976 (24000/1001) FPS
Color space                              : YUV
Chroma subsampling                       : 4:2:0
Bit depth                                : 8 bits
Scan type                                : Progressive
Bits/(Pixel*Frame)                       : 0.084
Stream size                              : 2.46 GiB (96%)
Language                                 : English
Encoded date                             : UTC 2022-01-02 18:38:26
Tagged date                              : UTC 2022-01-02 18:38:26
Codec configuration box                  : avcC

Audio
ID                                       : 2
Format                                   : AAC LC
Format/Info                              : Advanced Audio Codec Low Complexity
Codec ID                                 : mp4a-40-2
Duration                                 : 1 h 24 min
Source duration                          : 1 h 24 min
Bit rate mode                            : Variable
Bit rate                                 : 192 kb/s
Maximum bit rate                         : 485 kb/s
Channel(s)                               : 2 channels
Channel layout                           : L R
Sampling rate                            : 48.0 kHz
Frame rate                               : 46.875 FPS (1024 SPF)
Compression mode                         : Lossy
Stream size                              : 114 MiB (4%)
Source stream size                       : 114 MiB (4%)
Language                                 : English
Encoded date                             : UTC 2022-01-02 18:38:26
Tagged date                              : UTC 2022-01-02 18:38:26

  User comments    Sort newest first

No comments have been posted yet.



Post anonymous comment
  • Comments need intelligible text (not only emojis or meaningless drivel).
  • No upload requests, visit the forum or message the uploader for this.
  • Use common sense and try to stay on topic.

  • :) :( :D :P :-) B) 8o :? 8) ;) :-* :-( :| O:-D Party Pirates Yuk Facepalm :-@ :o) Pacman Shit Alien eyes Ass Warn Help Bad Love Joystick Boom Eggplant Floppy TV Ghost Note Msg


    CAPTCHA Image 

    Anonymous comments have a moderation delay and show up after 15 minutes



      Sitefriends