Torrent details for "Freaky (2020) 720p h264 Ac3 5.1 Ita Eng Sub Ita Eng - MIRCrew"    Log in to bookmark

Loading...
Loading...
Torrent details
Cover
Download
Torrent rating (0 rated)
Controls:
Category:
Language:
English English
Total Size:
1.89 GB
Info Hash:
8167fd77beb37338c60fb87f33fc071cf720a89e
Added By:
Added:  
30-03-2021 14:55
Views:
879
Health:
Seeds:
8
Leechers:
2
Completed:
2,147

Similar torrents

Name 
DL
Uploader
Size 
S/L 
Added
797.39 MB
26,663
[224/19]
03/12/20 11:15
Uploaded by GalaxyRG:_trusted_uploader: Size 797.39 MBHealth [224/19]Added 03/12/20 11:15
-
1.13 GB
1,347
[17/1]
13/03/21 03:06
Uploaded by TGxTV:_trusted_uploader: Size 1.13 GBHealth [17/1]Added 13/03/21 03:06
-
1.41 GB
2,489
[15/2]
03/12/20 10:47
Uploaded by TGxMovies:_trusted_uploader: Size 1.41 GBHealth [15/2]Added 03/12/20 10:47
-
1.27 GB
931
[11/5]
10/02/20 15:55
Uploaded by trueHD Size 1.27 GBHealth [11/5]Added 10/02/20 15:55
-
12.78 GB
904
[11/4]
28/01/21 05:35
Uploaded by TGxMovies:_trusted_uploader: Size 12.78 GBHealth [11/4]Added 28/01/21 05:35
-
385.83 MB
506
[8/1]
13/03/21 03:13
Uploaded by TGxTV:_trusted_uploader: Size 385.83 MBHealth [8/1]Added 13/03/21 03:13
Title:
Freaky (2020)
Genre:
Comedy, Horror, Thriller
Runtime:
101 min    -    Rating: 6.9
Plot:
After swapping bodies with a deranged serial killer, a young girl in high school discovers she has less than 24 hours before the change becomes permanent.

Description
Freaky (2020) 720p h264 Ac3 5.1 Ita Eng Sub Ita Eng - MIRCrew

Image error
NO FOUND ONLY ORIGINAL RELEASE


My release is always in double track audio italian and Original audio
for select it use VLC or dvd player home
not use wmp

Freaky (2020)

Quality MIRCrew on HD 720p da 1,9 gb

Image error

Image error

Image error

Image error  

Lingua originale inglese
Paese di produzione Stati Uniti d'America
Anno 2020
Genere Horror, Thriller
Regia Christopher Landon
Sceneggiatura Christopher Landon, Michael Kennedy

Image error

   Vince Vaughn: Barney Calvin Garris / il "Macellaio"
   Kathryn Newton: Millie Kessler
   Katie Finneran: Coral Kessler
   Daniele Drori: Charlene "Char" Kessler
   Celeste O'Connor: Nyla Chones
   Misha Osherovich: Josh Detmer
   Uriah Shelton: Booker Strode
   Alan Ruck: signor Bernardi

Image error

Una sera 4 adolescenti (due ragazzi e due ragazze) trascorrono una tranquilla serata a base di storie spaventose e alcool a casa di una di loro, momentaneamente libera visto che i genitori sono via. Improvvisamente, i 4 vengono aggrediti da un uomo mascherato che, sfruttando qualsiasi arma gli venga a tiro nell'abitazione, li bracca e uccide uno dopo l'altro

Image error

After swapping bodies with a deranged serial killer, a young girl in high school discovers she has less than 24 hours before the change becomes permanent.

Image error  

Image error

Image error

Image error

Image error

Image error

Image error

General

Complete name                            : Freaky (2020) 720p h264 Ac3 5.1 Ita Eng Sub Ita Eng - MIRCrew\Freaky (2020) 720p h264 Ac3 5.1 Ita Eng Sub Ita Eng - MIRCrew.mkv
Format                                   : Matroska
Format version                           : Version 2
File size                                : 1.89 GiB
Duration                                 : 1h 42mn
Overall bit rate                         : 2 648 Kbps
Movie name                               : MIRCrew
Encoded date                             : UTC 2021-01-15 13:10:46
Writing application                      : Lavf54.63.100
Writing library                          : Lavf54.63.100
COMMENT                                  : MIRCrew

Video
ID                                       : 1
Format                                   : AVC
Format/Info                              : Advanced Video Codec
Format profile                           : Main@L4.1
Format settings, CABAC                   : Yes
Format settings, ReFrames                : 2 frames
Codec ID                                 : V_MPEG4/ISO/AVC
Duration                                 : 1h 42mn
Bit rate                                 : 1 900 Kbps
Width                                    : 1 280 pixels
Height                                   : 528 pixels
Display aspect ratio                     : 2.40:1
Frame rate mode                          : Variable
Frame rate                               : 23.976 fps
Color space                              : YUV
Chroma subsampling                       : 4:2:0
Bit depth                                : 8 bits
Scan type                                : Progressive
Bits/(Pixel*Frame)                       : 0.117
Stream size                              : 1.30 GiB (69%)
Writing library                          : x264 core 130 r2273
Encoding settings                        : cabac=1 / ref=2 / deblock=1:-1:-1 / analyse=0x1:0x131 / me=hex
Default                                  : Yes
Forced                                   : No
DURATION                                 : 01:42:04.577000000


Audio #1
ID                                       : 2
Format                                   : AC-3
Format/Info                              : Audio Coding 3
Mode extension                           : CM (complete main)
Codec ID                                 : A_AC3
Duration                                 : 1h 42mn
Bit rate mode                            : Constant
Bit rate                                 : 384 Kbps
Channel(s)                               : 6 channels
Channel positions                        : Front: L C R, Side: L R, LFE
Sampling rate                            : 48.0 KHz
Bit depth                                : 16 bits
Compression mode                         : Lossy
Delay relative to video                  : 1mn 5s
Stream size                              : 280 MiB (15%)
Title                                    : Ita Ac3 5.1
Language                                 : Italian
Default                                  : No
Forced                                   : No
DURATION                                 : 01:42:02.592000000

Audio #2
ID                                       : 3
Format                                   : AC-3
Format/Info                              : Audio Coding 3
Mode extension                           : CM (complete main)
Codec ID                                 : A_AC3
Duration                                 : 1h 42mn
Bit rate mode                            : Constant
Bit rate                                 : 384 Kbps
Channel(s)                               : 6 channels
Channel positions                        : Front: L C R, Side: L R, LFE
Sampling rate                            : 48.0 KHz
Bit depth                                : 16 bits
Compression mode                         : Lossy
Delay relative to video                  : 1mn 5s
Stream size                              : 280 MiB (15%)
Title                                    : Eng Ac3 5.1
Language                                 : English
Default                                  : No
Forced                                   : No
DURATION                                 : 01:42:04.608000000





Image error

  User comments

No comments have been posted yet.


Post anonymous comment
  • Comments need intelligible text (not only emojis or meaningless drivel).
  • No upload requests, visit the forum or message the uploader for this.
  • Use common sense and try to stay on topic.

  • :) :( :D :P :-) B) 8o :? 8) ;) :-* :-( :| O:-D Party Pirates Yuk Facepalm :-@ :o) Pacman Shit Alien eyes Ass Warn Help Bad Love Joystick Boom Eggplant Floppy TV Ghost Note Msg


    CAPTCHA Image 

    Anonymous comments have a moderation delay and show up after 15 minutes

      Sitefriends