Torrent details for "Inglourious Basterds (2009) 1080p BluRay x264 English AC3 5.1 - MeGUiL"    Log in to bookmark

Loading...
Loading...
Torrent details
Cover
Download
Torrent rating (1 rated)
Controls:
Category:
Language:
English English
Total Size:
3.17 GB
Info Hash:
27958fe0c167824751b5a29c08a96b3f7474c5c9
Added By:
meguil:_verified_uploader::_male:  
Added:  
13-01-2021 20:22 (edited 13-01-2021 21:42) by miok:_admin:
Views:
129
Health:
Seeds:
70
Leechers:
14
Completed:
458

File List (2) : 
Thanks for rating :
miok:_admin: (5),

Genre:
Adventure, Drama, War
Runtime:
153 min    -    Rating: 8.3
Plot:
In German-occupied France, young Jewish refugee Shosanna Dreyfus witnesses the slaughter of her family by Colonel Hans Landa. Narrowly escaping with her life, she plots her revenge several years later when German war hero Fredrick Zoller takes a rapid interest in her and arranges an illustrious movie premiere at the theater she now runs. With the promise of every major Nazi officer in attendance, the event catches the attention of the "Basterds", a group of Jewish-American guerrilla soldiers led by the ruthless Lt. Aldo Raine. As the relentless executioners advance and the conspiring young girl's plans are set in motion, their paths will cross for a fateful evening that will shake the very annals of history.

Description


Release Title
Inglourious Basterds (2009) 1080p BluRay x264 English AC3 5.1 - MeGUiL

IMDB Link
https://www.imdb.com/title/tt0361748/

IMDb Rating
8.3/10 (1,260,816 user)

Join me on Wire
I’m on Wire, search for @meguil

Screens:
Click to enlarge









Media Info
General
Format                                   : Matroska
Format version                           : Version 4
File size                                : 3.15 GiB
Duration                                 : 2 h 32 min
Overall bit rate                         : 2 950 kb/s
Movie name                               : Inglourious Basterds (2009) 1080p BluRay x264 English AC3 5.1 - MeGUiL
Encoded date                             : UTC 2021-01-09 23:33:40
Writing application                      : mkvmerge v7.7.0 ('Six Voices') 64bit built on Feb 28 2015 23:39:33
Writing library                          : libebml v1.3.1 + libmatroska v1.4.2

Video
ID                                       : 1
Format                                   : AVC
Format/Info                              : Advanced Video Codec
Format profile                           : High@L4.1
Format settings                          : CABAC / 4 Ref Frames
Format settings, CABAC                   : Yes
Format settings, RefFrames               : 4 frames
Codec ID                                 : V_MPEG4/ISO/AVC
Duration                                 : 2 h 32 min
Bit rate                                 : 2 500 kb/s
Width                                    : 1 920 pixels
Height                                   : 800 pixels
Display aspect ratio                     : 2.40:1
Frame rate mode                          : Constant
Frame rate                               : 23.976 (23976/1000) FPS
Color space                              : YUV
Chroma subsampling                       : 4:2:0
Bit depth                                : 8 bits
Scan type                                : Progressive
Bits/(Pixel*Frame)                       : 0.068
Stream size                              : 2.67 GiB (85%)
Title                                    : Inglourious Basterds (2009) 1080p BluRay x264 English AC3 5.1 - MeGUiL
Writing library                          : x264 core 152 r2851M ba24899
Encoding settings                        : cabac=1 / ref=4 / deblock=1:-1:-1 / analyse=0x3:0x113 / me=umh / subme=9 / psy=1 / psy_rd=1.00:0.15 / mixed_ref=1 / me_range=24 / chroma_me=1 / trellis=2 / 8x8dct=1 / cqm=0 / deadzone=21,11 / fast_pskip=1 / chroma_qp_offset=-3 / threads=32 / lookahead_threads=4 / sliced_threads=0 / nr=0 / decimate=1 / interlaced=0 / bluray_compat=0 / constrained_intra=0 / bframes=3 / b_pyramid=2 / b_adapt=2 / b_bias=0 / direct=3 / weightb=1 / open_gop=0 / weightp=2 / keyint=250 / keyint_min=25 / scenecut=40 / intra_refresh=0 / rc_lookahead=50 / rc=2pass / mbtree=1 / bitrate=2500 / ratetol=1.0 / qcomp=0.60 / qpmin=0 / qpmax=69 / qpstep=4 / cplxblur=20.0 / qblur=0.5 / vbv_maxrate=31250 / vbv_bufsize=31250 / nal_hrd=none / filler=0 / ip_ratio=1.40 / aq=3:1.00
Default                                  : Yes
Forced                                   : No

Audio
ID                                       : 2
Format                                   : AC-3
Format/Info                              : Audio Coding 3
Commercial name                          : Dolby Digital
Codec ID                                 : A_AC3
Duration                                 : 2 h 32 min
Bit rate mode                            : Constant
Bit rate                                 : 448 kb/s
Channel(s)                               : 6 channels
Channel layout                           : L R C LFE Ls Rs
Sampling rate                            : 48.0 kHz
Frame rate                               : 31.250 FPS (1536 SPF)
Bit depth                                : 16 bits
Compression mode                         : Lossy
Stream size                              : 490 MiB (15%)
Title                                    : AC3 448 kbps 5.1 - MeGUiL
Language                                 : English
Service kind                             : Complete Main
Default                                  : Yes
Forced                                   : No

Text
ID                                       : 3
Format                                   : UTF-8
Codec ID                                 : S_TEXT/UTF8
Codec ID/Info                            : UTF-8 Plain Text
Duration                                 : 2 h 27 min
Bit rate                                 : 36 b/s
Count of elements                        : 1179
Stream size                              : 38.9 KiB (0%)
Language                                 : English
Default                                  : No
Forced                                   : No

NOTE:- Subtitles are hardcoded for Non-English part.

Similar torrents

Name 
DL
Uploader
Size 
S/L 
Added
991.12 MB
12,692
[23/2]
28/11/20 18:21
Uploaded by GalaxyRG:_trusted_uploader: Size 991.12 MBHealth [23/2]Added 28/11/20 18:21
-
3.18 GB
712
[5/1]
05/10/20 17:54
Uploaded by Sp33dy94:_trusted_uploader: Size 3.18 GBHealth [5/1]Added 05/10/20 17:54

  User comments

Posted: 2021-01-13 21:49:28 (2Wks ago) Report

avatar
Reppoints: 2760
Well done! A/V = 9/9


Post anonymous comment
:) :( :D :P :-) B) 8o :? 8) ;) :-* :-( :| O:-D :-@ :facepalm :o) brb :warn :help :bad :love :idea :bomb :!


CAPTCHA Image 

Anonymous comments have a moderation delay and show up after 15 minutes

  Sitefriends