Torrent details for "Extraction (2020) 1080p WEBRip x264 Dual Audio Hindi English E-AC3 5.1 - MeGUiL"    Log in to bookmark

Loading...
Loading...
Torrent details
Cover
Download
Torrent rating (0 rated)
Controls:
Category:
Language:
Hindi Hindi
Total Size:
2.38 GB
Info Hash:
0c5b5a1e1fb6630026805ed64a54c14e9cbab4c4
Added By:
meguil:_verified_uploader::_male:  
Added:  
13-01-2021 20:22
Views:
156
Health:
Seeds:
37
Leechers:
29
Completed:
567

File List (2) : 
Title:
Extraction (2020)
Genre:
Action
Runtime:
116 min    -    Rating: 8.8
Director:
Plot:
In an underworld of weapons dealers and traffickers, a young boy becomes the pawn in a war between notorious drug lords. Trapped by kidnappers inside one of the world's most impenetrable cities, his rescue beckons the unparalleled skill of a mercenary named Tyler Rake, but Rake is a broken man with nothing to lose, harboring a death wish that makes an already deadly mission near impossible.

Description


Release Title
Extraction (2020) 1080p WEBRip x264 Dual Audio Hindi English E-AC3 5.1 - MeGUiL

IMDB Link
https://www.imdb.com/title/tt8936646/

IMDb Rating
6.7/10 (155,314 user)

Join me on Wire
I’m on Wire, search for @meguil

Screens:
Click to enlarge









[code][size=12]Media Info
General
Format                                   : Matroska
Format version                           : Version 4
File size                                : 2.37 GiB
Duration                                 : 1 h 57 min
Overall bit rate                         : 2 885 kb/s
Movie name                               : Extraction (2020) 1080p WEBRip x264 Dual Audio Hindi English E-AC3 5.1 - MeGUiL
Encoded date                             : UTC 2021-01-09 20:59:01
Writing application                      : mkvmerge v7.7.0 ('Six Voices') 64bit built on Feb 28 2015 23:39:33
Writing library                          : libebml v1.3.1 + libmatroska v1.4.2

Video
ID                                       : 1
Format                                   : AVC
Format/Info                              : Advanced Video Codec
Format profile                           : High@L4.1
Format settings                          : CABAC / 4 Ref Frames
Format settings, CABAC                   : Yes
Format settings, RefFrames               : 4 frames
Codec ID                                 : V_MPEG4/ISO/AVC
Duration                                 : 1 h 57 min
Bit rate                                 : 2 500 kb/s
Width                                    : 1 920 pixels
Height                                   : 800 pixels
Display aspect ratio                     : 2.40:1
Frame rate mode                          : Constant
Frame rate                               : 24.000 FPS
Color space                              : YUV
Chroma subsampling                       : 4:2:0
Bit depth                                : 8 bits
Scan type                                : Progressive
Bits/(Pixel*Frame)                       : 0.068
Stream size                              : 2.05 GiB (87%)
Title                                    : Extraction (2020) 1080p WEBRip x264 Dual Audio Hindi English E-AC3 5.1 - MeGUiL
Writing library                          : x264 core 152 r2851M ba24899
Encoding settings                        : cabac=1 / ref=4 / deblock=1:-1:-1 / analyse=0x3:0x113 / me=umh / subme=9 / psy=1 / psy_rd=1.00:0.15 / mixed_ref=1 / me_range=24 / chroma_me=1 / trellis=2 / 8x8dct=1 / cqm=0 / deadzone=21,11 / fast_pskip=1 / chroma_qp_offset=-3 / threads=16 / lookahead_threads=4 / sliced_threads=0 / nr=0 / decimate=1 / interlaced=0 / bluray_compat=0 / constrained_intra=0 / bframes=3 / b_pyramid=2 / b_adapt=2 / b_bias=0 / direct=3 / weightb=1 / open_gop=0 / weightp=2 / keyint=250 / keyint_min=25 / scenecut=40 / intra_refresh=0 / rc_lookahead=50 / rc=2pass / mbtree=1 / bitrate=2500 / ratetol=1.0 / qcomp=0.60 / qpmin=0 / qpmax=69 / qpstep=4 / cplxblur=20.0 / qblur=0.5 / vbv_maxrate=31250 / vbv_bufsize=31250 / nal_hrd=none / filler=0 / ip_ratio=1.40 / aq=3:1.00
Default                                  : Yes
Forced                                   : No

Audio #1
ID                                       : 2
Format                                   : E-AC-3
Format/Info                              : Enhanced AC-3
Commercial name                          : Dolby Digital Plus
Codec ID                                 : A_EAC3
Duration                                 : 1 h 57 min
Bit rate mode                            : Constant
Bit rate                                 : 192 kb/s
Channel(s)                               : 6 channels
Channel layout                           : L R C LFE Ls Rs
Sampling rate                            : 48.0 kHz
Frame rate                               : 31.250 FPS (1536 SPF)
Compression mode                         : Lossy
Stream size                              : 161 MiB (7%)
Title                                    : E-AC3 192 kbps 5.1 - MeGUiL
Language                                 : Hindi
Service kind                             : Complete Main
Default                                  : Yes
Forced                                   : No

Audio #2
ID                                       : 3
Format                                   : E-AC-3
Format/Info                              : Enhanced AC-3
Commercial name                          : Dolby Digital Plus
Codec ID                                 : A_EAC3
Duration                                 : 1 h 57 min
Bit rate mode                            : Constant
Bit rate                                 : 192 kb/s
Channel(s)                               : 6 channels
Channel layout                           : L R C LFE Ls Rs
Sampling rate                            : 48.0 kHz
Frame rate                               : 31.250 FPS (1536 SPF)
Compression mode                         : Lossy
Stream size                              : 161 MiB (7%)
Title                                    : E-AC3 192 kbps 5.1 - MeGUiL
Language                                 : English
Service kind                             : Complete Main
Default                                  : No
Forced                                   : No

Text #1
ID                                       : 4
Format                                   : VobSub
Muxing mode                              : zlib
Codec ID                                 : S_VOBSUB
Codec ID/Info                            : Picture based subtitle format used on DVDs
Duration                                 : 1 h 56 min
Bit rate                                 : 140 b/s
Count of elements                        : 118
Stream size                              : 120 KiB (0%)
Title                                    : Forced
Language                                 : Hindi
Default                                  : No
Forced                                   : No

Text #2
ID                                       : 5
Format                                   : VobSub
Muxing mode                              : zlib
Codec ID                                 : S_VOBSUB
Codec ID/Info                            : Picture based subtitle format used on DVDs
Duration                                 : 1 h 56 min
Bit rate                                 : 405 b/s
Count of elements                        : 180
Stream size                              : 345 KiB (0%)
Title                                    : Forced
Language                                 : Tamil
Default                                  : No
Forced                                   : No

Text #3
ID                                       : 6
Format                                   : VobSub
Muxing mode                              : zlib
Codec ID                                 : S_VOBSUB
Codec ID/Info                            : Picture based subtitle format used on DVDs
Duration                                 : 1 h 43 min
Bit rate                                 : 323 b/s
Count of elements                        : 191
Stream size                              : 244 KiB (0%)
Title                                    : Forced
Language                                 : Telugu
Default                                  : No
Forced                                   : No

Text #4
ID                                       : 7
Format                                   : UTF-8
Codec ID                                 : S_TEXT/UTF8
Codec ID/Info                            : UTF-8 Plain Text
Duration                                 : 1 h 39 min
Bit rate                                 : 25 b/s
Count of elements                        : 925
Stream size                              : 18.9 KiB (0%)
Language                                 : English
Default                                  : No
Forced                                   : No


[/size][/code]

Similar torrents

Name 
DL
Uploader
Size 
S/L 
Added
1.39 GB
13,666
[366/13]
24/04/20 08:32
Uploaded by TGxMovies:_trusted_uploader: Size 1.39 GBHealth [366/13]Added 24/04/20 08:32
-
819.67 MB
4,573
[112/7]
24/04/20 08:54
Uploaded by trueHD:_trusted_uploader: Size 819.67 MBHealth [112/7]Added 24/04/20 08:54
-
981.18 MB
5,827
[93/5]
24/04/20 09:06
Uploaded by trueHD:_trusted_uploader: Size 981.18 MBHealth [93/5]Added 24/04/20 09:06
796.46 MB
37,682
[48/5]
24/04/20 12:52
Uploaded by GalaxyRG:_trusted_uploader: Size 796.46 MBHealth [48/5]Added 24/04/20 12:52
-
1.40 GB
10,236
[38/3]
24/04/20 14:59
Uploaded by GalaxyRG:_trusted_uploader: Size 1.40 GBHealth [38/3]Added 24/04/20 14:59
4.57 GB
6,280
[34/6]
24/04/20 08:16
Uploaded by TGxMovies:_trusted_uploader: Size 4.57 GBHealth [34/6]Added 24/04/20 08:16
-
946.98 MB
4,208
[33/3]
24/04/20 09:42
Uploaded by juggs:_trusted_uploader::_sitefriend: Size 946.98 MBHealth [33/3]Added 24/04/20 09:42
-
822.59 MB
308
[29/7]
04/01/21 06:50
Uploaded by WowMovies:_trusted_uploader: Size 822.59 MBHealth [29/7]Added 04/01/21 06:50
-
3.89 GB
169
[22/8]
06/01/21 13:55
Uploaded by DaScubaDude:_trusted_uploader::_sitefriend: Size 3.89 GBHealth [22/8]Added 06/01/21 13:55
-
5.39 GB
1,330
[8/2]
06/05/20 06:06
Uploaded by QxR:_trusted_uploader: Size 5.39 GBHealth [8/2]Added 06/05/20 06:06

  User comments

No comments have been posted yet.


Post anonymous comment
:) :( :D :P :-) B) 8o :? 8) ;) :-* :-( :| O:-D :-@ :facepalm :o) brb :warn :help :bad :love :idea :bomb :!


CAPTCHA Image 

Anonymous comments have a moderation delay and show up after 15 minutes

  Sitefriends