Torrent details for "The Croods (2013) 2160p HDR 5.1 x265 10bit Phun Psyz"    Log in to bookmark

Loading...
Loading...
Torrent details
Cover
Download
Torrent rating (0 rated)
Controls:
Category:
Language:
English English
Total Size:
2.21 GB
Info Hash:
23fb3bbf99a420ccc6fcbbe89f510b96947f0f17
Added By:
Added:  
22-11-2020 03:10
Views:
427
Health:
Seeds:
35
Leechers:
13
Completed:
158

File List (1) : 
Genre:
Animation, Adventure, Comedy, Family, Fantasy
Runtime:
98 min    -    Rating: 7.2
Plot:
"The Croods" are an eccentric family of cavemen, who survive the harsh terrain by living accordingly to a strict set of rules. But when their home is destroyed in the wake of an impending disaster known as "The End", they are forced to leave their home of shelter and security, and into the wilderness of the unknown to find a new home.

Description
https://www.imdb.com/title/tt0481499/

After their cave is destroyed, a caveman family must trek through an unfamiliar fantastical world with the help of an inventive boy.

Source: seleZen (Remux)



Format                      : Matroska
Format version              : Version 4
File size                   : 2.21 GiB
Duration                    : 1 h 38 min
Overall bit rate            : 3 209 kb/s
Writing application         : HandBrake 1.3.3 2020061300
Writing library             : Lavf58.29.100

Video
ID                          : 1
Format                      : HEVC
Format/Info                 : High Efficiency Video Coding
Format profile              : Main 10@L5@High
Codec ID                    : V_MPEGH/ISO/HEVC
Duration                    : 1 h 38 min
Bit rate                    : 2 825 kb/s
Width                       : 3 840 pixels
Height                      : 1 600 pixels
Display aspect ratio        : 2.40:1
Frame rate mode             : Constant
Frame rate                  : 23.976 (24000/1001) FPS
Color space                 : YUV
Chroma subsampling          : 4:2:0
Bit depth                   : 10 bits
Bits/(Pixel*Frame)          : 0.019
Stream size                 : 1.95 GiB (88%)
Writing library             : x265 3.2.1+1-b5c86a64bbbe:[Windows][GCC 9.2.0][64 bit] 10bit
Color range                 : Full
Color primaries             : BT.2020
Transfer characteristics    : PQ
Matrix coefficients         : BT.2020 non-constant

Audio
ID                          : 2
Format                      : AC-3
Format/Info                 : Audio Coding 3
Commercial name             : Dolby Digital
Codec ID                    : A_AC3
Duration                    : 1 h 38 min
Bit rate mode               : Constant
Bit rate                    : 320 kb/s
Channel(s)                  : 6 channels
Channel layout              : L R C LFE Ls Rs
Sampling rate               : 48.0 kHz
Frame rate                  : 31.250 FPS (1536 SPF)
Compression mode            : Lossy
Delay relative to video     : -5 ms
Stream size                 : 226 MiB (10%)
Language                    : English

Text
Language                    : English
Language                    : English
Language                    : Russian
Language                    : Ukrainian
Default                     : No
Forced                      : No

Similar torrents

Name 
DL
Uploader
Size 
S/L 
Added
846.65 MB
32,618
[339/137]
27/11/20 23:14
Uploaded by TGxMovies:_trusted_uploader: Size 846.65 MBHealth [339/137]Added 27/11/20 23:14
-
1.62 GB
6,182
[187/94]
27/11/20 22:31
Uploaded by TGxMovies:_trusted_uploader: Size 1.62 GBHealth [187/94]Added 27/11/20 22:31

  User comments

No comments have been posted yet.


Post anonymous comment
:) :( :D :P :-) B) 8o :? 8) ;) :-* :-( :| O:-D :-@ :facepalm :o) brb :warn :help :bad :love :idea :bomb :!


CAPTCHA Image 

Anonymous comments have a moderation delay and show up after 15 minutes

  Sitefriends