Torrent details for "The.Block.S16E32.720p.WebRip.x264-M09"    Log in to bookmark

Loading...
Loading...
Torrent details
Cover
Download
Torrent rating (0 rated)
Controls:
Category:
Language:
English English
Total Size:
994.84 MB
Info Hash:
0d9e8d98a88422250aa1ddac97a48b657483eb11
Added By:
Added:  
18-10-2020 12:20
Views:
165
Health:
Seeds:
29
Leechers:
6
Completed:
162

File List (2) : 
Title:
The Block (2003)
Genre:
Game-Show, Reality-TV
Runtime:
n/A    -    Rating: 6.2
Director:
n/A
Plot:
Couples compete to renovate rundown buildings into high-end apartments and sell them at auction for the highest price to receive a prize of $100,000.

Description
The Block S16E32 - Episode Synopsis:
It's judgment day for the upstairs rooms. Who will take home the $10,000 for their creative design and layout choices?

Media Information

General
Complete name : The.Block.S16E32.720p.WebRip.x264-M09.mp4
Format : MPEG-4
Format profile : Base Media
Codec ID : 995 MiB
Duration : 1 h 3 min
Overall bit rate : 2 195 kb/s
Writing application : Lavf57.71.100

Video
ID : 1
Format : AVC
Format/Info : Advanced Video Codec
Format profile : Main@L3.1
Format settings : CABAC / 4 Ref Frames
Format settings, Reference frames : 4 frames
Codec ID : avc1
Codec ID/Info : Advnced Video Coding
Duration : 1 h 3 min
Bit rate : 1 996 kb/s
Width : 1 280 pixels
Height : 720 pixels
Display aspect ratio : 16:9
Frame rate mode : Constant
Frame rate : 25.000 FPS
Color space : YUV
Chroma subsampling : 4:2:0
Bit depth : 8 bits
Scan type : Progressive
Bits/(Pixel*Frame) : 0.087
Stream size : 905 MiB (91%)
Writing library : Zencoder Video Encoding System
Codec configuration box : avcC

Audio
ID : 2
Format : AAC LC
Codec ID : mp4a-40-2
Duration : 1 h 3 min
Bit rate mode : Constant
Bit rate : 192 kb/s
Channel(s) : 2 channels
Channel layout : L R
Sampling rate : 44.1 kHz
Frame rate : 43.066 FPS (1024 SPF)
Compression mode : Lossy
Stream size : 87.0 MiB (9%)


Screenshots

Similar torrents

  No similar torrents were found.

  User comments

No comments have been posted yet.


Post anonymous comment
:) :( :D :P :-) B) 8o :? 8) ;) :-* :-( :| O:-D :-@ :facepalm :o) brb :warn :help :bad :love :idea :bomb :!


CAPTCHA Image 

Anonymous comments have a moderation delay and show up after 15 minutes

  Sitefriends