Torrent details for "Cargo (2020) Hindi (1080p WEBRip x265 HEVC 10bit DD 5.1 MSubs) - [Musafirboy]"    Log in to bookmark

Loading...
Loading...
Torrent details
Cover
Download
Torrent rating (0 rated)
Controls:
Category:
Language:
Hindi Hindi
Total Size:
1.78 GB
Info Hash:
1197c58477205eda515441339a035b9e2b7a9106
Added By:
Added:  
16-09-2020 08:11 (edited 16-09-2020 08:12) by Musafirboy:_verified_uploader:
Views:
1,061
Health:
Seeds:
37
Leechers:
16
Completed:
185

File List (2) : 
Title:
Cargo (2019)
Genre:
Fantasy, Horror, Sci-Fi
Runtime:
119 min    -    Rating: 6.8
Director:
Plot:
A young female astronaut, who joins a reclusive astronaut aboard a spaceship, struggles with her job as she interacts with mysterious Cargos that appear on the ship.

Description



Cargo (2020) Hindi
1080p NF WEBRip x265 HEVC 10bit DD 5.1 MSubs - [Musafirboy]







Enjoy 2pass, HEVC 10bit Encode for the best quality




















Source Information
Cargo.2020.1080p.NF.WEB-DL.DDP5.1.X264-Telly [1.9 GB]






Media Information

General
Complete name : Cargo (2020) Hindi (1080p WEBRip x265 10bit) - [Musafirboy].mkv
Format : Matroska
Format version : Version 4
File size : 1.78 GiB
Duration : 1 h 53 min
Overall bit rate : 2 251 kb/s
Encoded date : UTC 2020-09-12 06:02:56

Video
ID : 1
Format : HEVC
Format/Info : High Efficiency Video Coding
Format profile : Main 10@L5@Main
Codec ID : V_MPEGH/ISO/HEVC
Duration : 1 h 53 min
Bit rate : 1 800 kb/s
Width : 1 920 pixels
Height : 808 pixels
Display aspect ratio : 2.40:1
Frame rate mode : Constant
Frame rate : 24.000 FPS
Color space : YUV
Chroma subsampling : 4:2:0
Bit depth : 10 bits
Bits/(Pixel*Frame) : 0.048
Stream size : 1.42 GiB (80%)
Writing library : x265 3.2+9-971180b100f8:[Windows][GCC 9.2.0][64 bit] 10bit
Encoding settings : cpuid=1111039 / frame-threads=4 / numa-pools=24 / wpp / no-pmode / no-pme / no-psnr / no-ssim / log-level=2 / input-csp=1 / input-res=1920x808 / interlace=0 / total-frames=162896 / level-idc=50 / high-tier=1 / uhd-bd=0 / ref=4 / no-allow-non-conformance / no-repeat-headers / annexb / no-aud / no-hrd / info / hash=0 / no-temporal-layers / open-gop / min-keyint=24 / keyint=250 / gop-lookahead=0 / bframes=4 / b-adapt=2 / b-pyramid / bframe-bias=0 / rc-lookahead=25 / lookahead-slices=4 / scenecut=40 / radl=0 / no-splice / no-intra-refresh / ctu=64 / min-cu-size=8 / rect / no-amp / max-tu-size=32 / tu-inter-depth=1 / tu-intra-depth=1 / limit-tu=0 / rdoq-level=2 / dynamic-rd=0.00 / no-ssim-rd / signhide / no-tskip / nr-intra=0 / nr-inter=0 / no-constrained-intra / strong-intra-smoothing / max-merge=3 / limit-refs=3 / limit-modes / me=3 / subme=5 / merange=57 / temporal-mvp / no-frame-dup / no-hme / weightp / no-weightb / no-analyze-src-pics / deblock=0:0 / sao / no-sao-non-deblock / rd=4 / selective-sao=4 / no-early-skip / rskip / no-fast-intra / no-tskip-fast / no-cu-lossless / no-b-intra / no-splitrd-skip / rdpenalty=0 / psy-rd=2.00 / psy-rdoq=1.00 / no-rd-refine / no-lossless / cbqpoffs=0 / crqpoffs=0 / rc=abr / bitrate=1800 / qcomp=0.60 / qpstep=4 / stats-write=0 / stats-read=2 / cplxblur=20.0 / qblur=0.5 / ipratio=1.40 / pbratio=1.30 / aq-mode=3 / aq-strength=0.30 / cutree / zone-count=0 / no-strict-cbr / qg-size=32 / no-rc-grain / qpmax=69 / qpmin=0 / no-const-vbv / sar=0 / overscan=0 / videoformat=5 / range=0 / colorprim=1 / transfer=1 / colormatrix=1 / chromaloc=0 / display-window=0 / cll=0,0 / min-luma=0 / max-luma=1023 / log2-max-poc-lsb=8 / vui-timing-info / vui-hrd-info / slices=1 / no-opt-qp-pps / no-opt-ref-list-length-pps / no-multi-pass-opt-rps / scenecut-bias=0.05 / no-opt-cu-delta-qp / no-aq-motion / no-hdr / no-hdr-opt / no-dhdr10-opt / no-idr-recovery-sei / analysis-reuse-level=5 / scale-factor=0 / refine-intra=0 / refine-inter=0 / refine-mv=1 / refine-ctu-distortion=0 / no-limit-sao / ctu-info=0 / no-lowpass-dct / refine-analysis-type=0 / copy-pic=1 / max-ausize-factor=1.0 / no-dynamic-refine / no-single-sei / no-hevc-aq / no-svt / no-field / qp-adaptation-range=1.00
Default : Yes
Forced : No
Color range : Limited
Color primaries : BT.709
Transfer characteristics : BT.709
Matrix coefficients : BT.709

Audio
ID : 2
Format : AC-3
Format/Info : Audio Coding 3
Commercial name : Dolby Digital
Codec ID : A_AC3
Duration : 1 h 53 min
Bit rate mode : Constant
Bit rate : 448 kb/s
Channel(s) : 6 channels
Channel layout : L R C LFE Ls Rs
Sampling rate : 48.0 kHz
Frame rate : 31.250 FPS (1536 SPF)
Compression mode : Lossy
Stream size : 362 MiB (20%)
Language : Hindi
Service kind : Complete Main
Default : Yes
Forced : No

Subtitle #1 : UTF-8 / English
Subtitle #2 : UTF-8 / Hindi
Subtitle #3 : UTF-8 / Arabic
Subtitle #4 : UTF-8 / Chinese
Subtitle #5 : UTF-8 / French
Subtitle #6 : UTF-8 / Spanish
Subtitle #7 : UTF-8 / Italian
Subtitle #8 : UTF-8 / Indonesian
Subtitle #9 : UTF-8 / Thai








Similar torrents

Name 
DL
Uploader
Size 
S/L 
Added
-
948.22 MB
781
[1/1]
10/09/18 14:18
-
1.36 GB
2,104
[0/0]
18/05/18 08:39
-
1.36 GB
1,707
[0/0]
18/05/18 08:41
-
1.88 GB
742
[0/0]
07/09/18 08:24
-
170.75 MB
329
[0/0]
13/01/20 16:55
-
1.57 GB
1,031
[0/0]
18/05/18 13:27
-
1.57 GB
919
[0/0]
20/05/18 15:58

  User comments

Guest-2563
Posted: 2020-09-18 06:26:00 (1Day ago) Report
Guest user
avatar
Reppoints: -100
The description on the spaceship/space travel prompted me to d/l this. This definitely has to be one of worst movies I have seen.


Post anonymous comment
:) :( :D :P :-) B) 8o :? 8) ;) :-* :-( :| O:-D :-@ :facepalm :o) brb :warn :help :bad :love :idea :bomb :!


CAPTCHA Image 

  Sitefriends