Torrent details for "Bad Trip (2020) 1080p 5.1 - 2.0 x264 Phun Psyz"    Log in to bookmark

Torrent details
Cover
Download
Torrent rating (0 rated)
Controls:
Category:
Language:
English English
Total Size:
1.64 GB
Info Hash:
ee20513f4d414969274b5d0669876a8fe67fd58c
Added By:
Added:  
18-04-2020 00:14
Stats:
| Update
Genres:



Similar torrents

Name 
DL
Uploader
Size 
S/L 
Added
796.87 MB
32,496
[51/8]
17/04/20 10:10
Uploaded by GalaxyRG:_trusted_uploader: Size 796.87 MBHealth [51/8]Added 17/04/20 10:10
-
6.18 GB
1,638
[15/0]
17/04/20 09:29
Uploaded by TGxMovies:_trusted_uploader: Size 6.18 GBHealth [15/0]Added 17/04/20 09:29
-
1.25 GB
2,125
[6/0]
17/04/20 09:15
Uploaded by TGxMovies:_trusted_uploader: Size 1.25 GBHealth [6/0]Added 17/04/20 09:15
-
670.11 MB
557
[6/2]
05/08/21 06:02
Uploaded by FDMovies707:_trusted_uploader: Size 670.11 MBHealth [6/2]Added 05/08/21 06:02
-
3.11 GB
1,473
[5/1]
07/04/21 19:14
Uploaded by meguil:_blocked: Size 3.11 GBHealth [5/1]Added 07/04/21 19:14
-
6.15 GB
407
[0/0]
10/08/21 20:57
Uploaded by Torbrazil:_trusted_uploader: Size 6.15 GBHealth [0/0]Added 10/08/21 20:57
Title:
Bad Trip (1000)
Genre:
Comedy
Runtime:
84 min    -    Rating: n/A
Director:
Plot:
Two friends embark on a cross-country road trip where they prank people using hidden cameras.

Description
www.imdb.com/title/tt9684220/

Two friends embark on a cross-country road trip where they prank people using hidden cameras.

Source: NTG (Amzn)

Image error

Format                      : MPEG-4
Format profile              : Base Media / Version 2
Codec ID                    : mp42 (isom/iso2/avc1/mp41)
File size                   : 1.64 GiB
Duration                    : 1 h 25 min
Overall bit rate mode       : Variable
Overall bit rate            : 2 753 kb/s
Writing application         : HandBrake 1.2.0 2018121700

Video
ID                          : 1
Format                      : AVC
Format/Info                 : Advanced Video Codec
Format profile              : Main@L4.1
Format settings             : CABAC / 1 Ref Frames
Format settings, CABAC      : Yes
Format settings, Reference  : 1 frame
Codec ID                    : avc1
Codec ID/Info               : Advanced Video Coding
Duration                    : 1 h 25 min
Bit rate                    : 2 265 kb/s
Width                       : 1 920 pixels
Height                      : 1 038 pixels
Display aspect ratio        : 1.85:1
Frame rate mode             : Variable
Frame rate                  : 23.976 FPS
Color space                 : YUV
Chroma subsampling          : 4:2:0
Bit depth                   : 8 bits
Scan type                   : Progressive
Bits/(Pixel*Frame)          : 0.047
Stream size                 : 1.35 GiB (82%)
Writing library             : x264 core 157 r2935 545de2f
Color range                 : Limited
Color primaries             : BT.709
Transfer characteristics    : BT.709
Matrix coefficients         : BT.709

Audio #1
ID                          : 2
Format                      : AC-3
Format/Info                 : Audio Coding 3
Commercial name             : Dolby Digital
Codec ID                    : ac-3
Duration                    : 1 h 25 min
Bit rate mode               : Constant
Bit rate                    : 320 kb/s
Channel(s)                  : 6 channels
Channel layout              : L R C LFE Ls Rs
Sampling rate               : 48.0 kHz
Frame rate                  : 31.250 FPS (1536 SPF)
Bit depth                   : 16 bits
Compression mode            : Lossy
Stream size                 : 195 MiB (12%)
Title                       : Surround
Language                    : English
Service kind                : Complete Main
Default                     : Yes

Audio #2
ID                          : 3
Format                      : AAC LC
Format/Info                 : Advanced Audio Codec Low Complexity
Codec ID                    : mp4a-40-2
Duration                    : 1 h 25 min
Bit rate mode               : Constant
Bit rate                    : 160 kb/s
Channel(s)                  : 2 channels
Channel layout              : L R
Sampling rate               : 48.0 kHz
Frame rate                  : 46.875 FPS (1024 SPF)
Compression mode            : Lossy
Stream size                 : 97.7 MiB (6%)
Title                       : Stereo
Language                    : English

Text
Language                    : English
Default                     : Yes
Forced                      : No
Language                    : English
Default                     : No
Forced                      : No

  User comments    Sort newest first

No comments have been posted yet.



Post anonymous comment
  • Comments need intelligible text (not only emojis or meaningless drivel).
  • No upload requests, visit the forum or message the uploader for this.
  • Use common sense and try to stay on topic.

  • :) :( :D :P :-) B) 8o :? 8) ;) :-* :-( :| O:-D Party Pirates Yuk Facepalm :-@ :o) Pacman Shit Alien eyes Ass Warn Help Bad Love Joystick Boom Eggplant Floppy TV Ghost Note Msg


    CAPTCHA Image 

    Anonymous comments have a moderation delay and show up after 15 minutes



      Sitefriends