visiting IP: 18.232.59.38
Are you torrenting safe?
more info

  Torrent details for "Beowulf 2007 HD 720p"    Log in to bookmark

Torrent details
Cover
Download
Torrent rating (0 rated)
Controls:
Category:
Language:
English English
Total Size:
1.98 GB
Info Hash:
7d6a4dd0c805ede5df43e4c8370d46d5d993f5af
Added By:
Added:  
06-07-2018 07:34
Views:
1,844
Health:
Seeds:
0
Leechers:
0
Completed:
3

Similar torrents

Name 
DL
Uploader
Size 
S/L 
Added
988.35 MB
14,488
[9/1]
20/01/22 15:00
Uploaded by GalaxyRG:_trusted_uploader: Size 988.35 MBHealth [9/1]Added 20/01/22 15:00
2.38 GB
1,797
[1/1]
25/09/21 15:30
Uploaded by sp3ll:_trusted_uploader: Size 2.38 GBHealth [1/1]Added 25/09/21 15:30
-
914.21 MB
1,055
[1/0]
01/11/21 13:23
Uploaded by FDMovies707:_trusted_uploader: Size 914.21 MBHealth [1/0]Added 01/11/21 13:23
-
986.54 MB
8,290
[6/0]
26/01/22 14:59
Uploaded by GalaxyRG:_trusted_uploader: Size 986.54 MBHealth [6/0]Added 26/01/22 14:59
Title:
Beowulf (2007)
Genre:
Animation, Action, Adventure, Fantasy
Runtime:
115 min    -    Rating: 6.2
Plot:
Set against the coming of Christianity, this is the story of the last hero: in 507, a monstrous troll wreaks havoc in the mead hall of the Danish king, Hrothgar. He offers rewards for the death of Grendel, so Beowulf, a great and boastful Geat warrior, arrives with his thanes. Beowulf sets aside his armor and awaits the monster; a fierce battle ensues that leads to Beowolf's entering the watery lair of Grendel's mother, where a devil's bargain awaits. Beowulf returns to Herot, the castle, and becomes king. Jump ahead many years, and the sins of the father are visited upon Beowulf and his kingdom. The hero must face his weakness and be heroic once again. Is the age of demons over? Written by

Description


General

Format                                   : Matroska
Format version                           : Version 4 / Version 2
File size                                : 1.98 GiB
Duration                                 : 1 h 54 min
Overall bit rate                         : 2 470 kb/s
Movie name                               : Beowulf 2007 HD 720p
Encoded date                             : UTC 2018-07-06 05:36:58
Writing application                      : mkvmerge v24.0.0 ('Beyond The Pale') 64-bit
Writing library                          : libebml v1.3.6 + libmatroska v1.4.9

Video
ID                                       : 1
Format                                   : AVC
Format/Info                              : Advanced Video Codec
Format profile                           : High@L4
Format settings                          : CABAC / 6 Ref Frames
Format settings, CABAC                   : Yes
Format settings, RefFrames               : 6 frames
Codec ID                                 : V_MPEG4/ISO/AVC
Duration                                 : 1 h 54 min
Bit rate                                 : 2 200 kb/s
Width                                    : 1 280 pixels
Height                                   : 556 pixels
Display aspect ratio                     : 2.35:1
Frame rate mode                          : Constant
Frame rate                               : 60.000 FPS
Color space                              : YUV
Chroma subsampling                       : 4:2:0
Bit depth                                : 8 bits
Scan type                                : Progressive
Bits/(Pixel*Frame)                       : 0.052
Stream size                              : 1.76 GiB (89%)
Title                                    : Beowulf 2007 HD 720p
Writing library                          : x264 core 155 r2901 7d0ff22
Default                                  : Yes
Forced                                   : No
Color range                              : Limited
Color primaries                          : BT.601 NTSC
Transfer characteristics                 : BT.709
Matrix coefficients                      : BT.601

Audio
ID                                       : 2
Format                                   : AAC
Format/Info                              : Advanced Audio Codec
Format profile                           : LC
Codec ID                                 : A_AAC-2
Duration                                 : 1 h 54 min
Bit rate                                 : 265 kb/s
Channel(s)                               : 2 channels
Channel positions                        : Front: L R
Sampling rate                            : 44.1 kHz
Frame rate                               : 43.066 FPS (1024 SPF)
Compression mode                         : Lossy
Delay relative to video                  : -23 ms
Stream size                              : 218 MiB (11%)
Title                                    : Beowulf 2007 HD 720p
Default                                  : Yes
Forced                                   : No

Image error
Image error
Image error
Image error
Image error


  User comments    Sort newest first

No comments have been posted yet.



Post anonymous comment
  • Comments need intelligible text (not only emojis or meaningless drivel).
  • No upload requests, visit the forum or message the uploader for this.
  • Use common sense and try to stay on topic.

  • :) :( :D :P :-) B) 8o :? 8) ;) :-* :-( :| O:-D Party Pirates Yuk Facepalm :-@ :o) Pacman Shit Alien eyes Ass Warn Help Bad Love Joystick Boom Eggplant Floppy TV Ghost Note Msg


    CAPTCHA Image 

    Anonymous comments have a moderation delay and show up after 15 minutes



      Sitefriends