Torrent details for "Hawkeye (2021) Season 1 S01 (2160p DSNP WEB-DL x265 HEVC 10bit DDP 5.1 Vyndros)"    Log in to bookmark

Torrent details
Cover
Download
Torrent rating (0 rated)
Controls:
Category:
Language:
English English
Total Size:
15.69 GB
Info Hash:
6d4ff8a97e36193d28d7018a1093e2baa2f9047d
Added By:
Added:  
25-12-2021 11:31
Views:
1,712
Health:
Seeds:
31
Leechers:
8
Completed:
808

Similar torrents

Name 
DL
Uploader
Size 
S/L 
Added
1.59 GB
15,562
[148/39]
22/12/21 11:06
Uploaded by GalaxyTV:_trusted_uploader: Size 1.59 GBHealth [148/39]Added 22/12/21 11:06
-
12.60 GB
2,000
[39/8]
22/12/21 09:44
Uploaded by indexFroggy:_trusted_uploader: Size 12.60 GBHealth [39/8]Added 22/12/21 09:44
9.32 GB
2,344
[36/4]
22/12/21 17:12
Uploaded by QxR:_trusted_uploader::_sitefriend: Size 9.32 GBHealth [36/4]Added 22/12/21 17:12
4.34 GB
2,949
[17/5]
25/12/21 12:35
Uploaded by HashMiner:_trusted_uploader: Size 4.34 GBHealth [17/5]Added 25/12/21 12:35
-
4.51 GB
1,678
[16/1]
24/11/21 08:55
Uploaded by ppb1:_trusted_uploader::_sitefriend: Size 4.51 GBHealth [16/1]Added 24/11/21 08:55
-
15.34 GB
950
[9/4]
25/11/21 09:14
Uploaded by ppb1:_trusted_uploader::_sitefriend: Size 15.34 GBHealth [9/4]Added 25/11/21 09:14
Title:
Hawkeye (2021)
Genre:
Action, Adventure, Crime, Drama, Mystery, Sci-Fi
Runtime:
60 min    -    Rating: 9.1
Director:
n/A
Plot:
Former Avenger Clint Barton has a seemingly simple mission: get back to his family for Christmas. Possible? Maybe with the help of Kate Bishop, a 22-year-old archer with dreams of becoming a Super Hero. The two are forced to work together when a presence from Barton's past threatens to derail far more than the festive spirit.

Description
Image error
Image error
Image error
Image error
Image error
Image error
Image error
Image error
Image error
Image error
Image error
Image error
Image error
Image error


Media Information

General
Format                                   : Matroska
Format version                           : Version 4 / Version 2
File size                                : 3.04 GiB
Duration                                 : 59 min 14 s
Overall bit rate                         : 7 344 kb/s
Encoded date                             : UTC 2021-12-23 04:52:04
Writing application                      : mkvmerge v59.0.0 ('Shining Star') 64-bit
Writing library                          : libebml v1.4.2 + libmatroska v1.6.4

Video
ID                                       : 1
Format                                   : HEVC
Format/Info                              : High Efficiency Video Coding
Format profile                           : Main 10@L5@Main
Codec ID                                 : V_MPEGH/ISO/HEVC
Duration                                 : 59 min 14 s
Bit rate                                 : 6 574 kb/s
Width                                    : 3 840 pixels
Height                                   : 1 608 pixels
Display aspect ratio                     : 2.40:1
Frame rate mode                          : Constant
Frame rate                               : 24.000 FPS
Color space                              : YUV
Chroma subsampling                       : 4:2:0
Bit depth                                : 10 bits
Bits/(Pixel*Frame)                       : 0.044
Stream size                              : 2.72 GiB (90%)
Writing library                          : x265 3.5+12+14-106329cbd:[Windows][GCC 10.3.0][64 bit] 10bit
Encoding settings                        : cpuid=1111039 / frame-threads=4 / numa-pools=16 / wpp / no-pmode / no-pme / no-psnr / ssim / log-level=2 / input-csp=1 / input-res=3840x1608 / interlace=0 / total-frames=85308 / level-idc=0 / high-tier=1 / uhd-bd=0 / ref=3 / no-allow-non-conformance / no-repeat-headers / annexb / no-aud / no-eob / no-eos / no-hrd / info / hash=0 / no-temporal-layers / open-gop / min-keyint=24 / keyint=250 / gop-lookahead=0 / bframes=8 / b-adapt=2 / b-pyramid / bframe-bias=0 / rc-lookahead=80 / lookahead-slices=8 / scenecut=40 / no-hist-scenecut / radl=0 / no-splice / no-intra-refresh / ctu=64 / min-cu-size=8 / no-rect / no-amp / max-tu-size=32 / tu-inter-depth=1 / tu-intra-depth=1 / limit-tu=0 / rdoq-level=0 / dynamic-rd=0.00 / no-ssim-rd / signhide / no-tskip / nr-intra=0 / nr-inter=0 / no-constrained-intra / no-strong-intra-smoothing / max-merge=5 / limit-refs=3 / no-limit-modes / me=3 / subme=5 / merange=57 / temporal-mvp / no-frame-dup / no-hme / weightp / no-weightb / no-analyze-src-pics / deblock=0:0 / sao / no-sao-non-deblock / rd=3 / selective-sao=4 / early-skip / no-rskip / no-fast-intra / no-tskip-fast / no-cu-lossless / b-intra / no-splitrd-skip / rdpenalty=0 / psy-rd=2.00 / psy-rdoq=0.00 / no-rd-refine / no-lossless / cbqpoffs=0 / crqpoffs=0 / rc=crf / crf=20.0 / qcomp=0.60 / qpstep=4 / stats-write=0 / stats-read=0 / ipratio=1.40 / pbratio=1.30 / aq-mode=3 / aq-strength=1.00 / cutree / zone-count=0 / no-strict-cbr / qg-size=32 / no-rc-grain / qpmax=69 / qpmin=0 / no-const-vbv / sar=0 / overscan=0 / videoformat=5 / range=0 / colorprim=1 / transfer=1 / colormatrix=1 / chromaloc=0 / display-window=0 / cll=0,0 / min-luma=0 / max-luma=1023 / log2-max-poc-lsb=8 / vui-timing-info / vui-hrd-info / slices=1 / no-opt-qp-pps / no-opt-ref-list-length-pps / no-multi-pass-opt-rps / scenecut-bias=0.05 / hist-threshold=0.03 / no-opt-cu-delta-qp / no-aq-motion / no-hdr10 / no-hdr10-opt / no-dhdr10-opt / no-idr-recovery-sei / analysis-reuse-level=0 / analysis-save-reuse-level=0 / analysis-load-reuse-level=0 / scale-factor=0 / refine-intra=0 / refine-inter=0 / refine-mv=1 / refine-ctu-distortion=0 / no-limit-sao / ctu-info=0 / no-lowpass-dct / refine-analysis-type=0 / copy-pic=1 / max-ausize-factor=1.0 / no-dynamic-refine / no-single-sei / no-hevc-aq / no-svt / no-field / qp-adaptation-range=1.00 / scenecut-aware-qp=0 / conformance-window-right-offset=0 / conformance-window-bottom-offset=0 / decoder-max-rate=0 / no-vbv-live-multi-pass
Default                                  : Yes
Forced                                   : No
Color range                              : Limited
Color primaries                          : BT.709
Transfer characteristics                 : BT.709
Matrix coefficients                      : BT.709

Audio
ID                                       : 2
Format                                   : E-AC-3
Format/Info                              : Enhanced Audio Coding 3
Format settings, Endianness              : Big
Codec ID                                 : A_EAC3
Duration                                 : 59 min 14 s
Bit rate mode                            : Constant
Bit rate                                 : 768 kb/s
Channel(s)                               : 6 channels
Channel positions                        : Front: L C R, Side: L R, LFE
Sampling rate                            : 48.0 kHz
Frame rate                               : 187.500 FPS (256 spf)
Compression mode                         : Lossy
Stream size                              : 325 MiB (10%)
Language                                 : English
Default                                  : No
Forced                                   : No

Subtitle #1
ID                                       : 3
Format                                   : UTF-8
Codec ID                                 : S_TEXT/UTF8
Codec ID/Info                            : UTF-8 Plain Text
Duration                                 : 56 min 32 s
Bit rate                                 : 48 b/s
Count of elements                        : 636
Stream size                              : 20.0 KiB (0%)
Language                                 : English
Default                                  : No
Forced                                   : No

Subtitle #2
ID                                       : 4
Format                                   : UTF-8
Codec ID                                 : S_TEXT/UTF8
Codec ID/Info                            : UTF-8 Plain Text
Duration                                 : 56 min 32 s
Bit rate                                 : 50 b/s
Count of elements                        : 680
Stream size                              : 21.0 KiB (0%)
Title                                    : SDH
Language                                 : English
Default                                  : No
Forced                                   : No

Source Information
Disney+ WEB-DL

  User comments    Sort newest first

No comments have been posted yet.



Post anonymous comment
  • Comments need intelligible text (not only emojis or meaningless drivel).
  • No upload requests, visit the forum or message the uploader for this.
  • Use common sense and try to stay on topic.

  • :) :( :D :P :-) B) 8o :? 8) ;) :-* :-( :| O:-D Party Pirates Yuk Facepalm :-@ :o) Pacman Shit Alien eyes Ass Warn Help Bad Love Joystick Boom Eggplant Floppy TV Ghost Note Msg


    CAPTCHA Image 

    Anonymous comments have a moderation delay and show up after 15 minutes



      Sitefriends