Torrent details for "The.Owl.House.Season.2.Episode.8.Knock,.Knock,.Knockin'.on.Hooty's.Door.H265.720p.WEBRip.E..."    Log in to bookmark

Torrent details
Cover
Download
Torrent rating (0 rated)
Controls:
Category:
Language:
English English
Total Size:
432.55 MB
Info Hash:
707971ca4ba5c615279b1d39890f1c2419af5da7
Added By:
Added:  
14-05-2022 14:05
Views:
71
Health:
Seeds:
20
Leechers:
2
Completed:
76

Similar torrents

  No other torrents available yet for this episode. use IMDB search to search all torrents for this show
Genre:
Animation, Action, Adventure, Comedy, Drama, Family, Fantasy, Horror, Mystery
Runtime:
22 min    -    Rating: 9.6
Director:
Plot:
n/A

Description
Episode Title: Knock, Knock, Knockin' on Hooty's Door
Season: 2
Episode: 8
Series: The Owl House
Air Date: July 31st, 2021
Age Rating: TV-Y7
Genre: Animation, Action, Adventure
Summary: Hooty tries to help King, Eda and Luz with their problems, but it doesn't go as planned.
IMDb Rating: 9.6/10 https://www.imdb.com/title/tt14709674/?ref_=fn_al_tt_1
Director: Amelia Lorenz
Writers: Dana Terrace (story by), John Bailey Owen (story by, story editor), Zach Marcus (story by, staff writer)
Video Info:
Format                                   : MPEG-4
Format profile                           : Base Media / Version 2
Codec ID                                 : mp42 (mp42/iso2/mp41)
File size                                : 433 MiB
Duration                                 : 22 min 21 s
Overall bit rate                         : 2 704 kb/s
Movie name                               : Knock, Knock, Knockin On Hootys Door
Album                                    : The Owl House
Encoded date                             : UTC 2022-04-24 11:57:02
Tagged date                              : UTC 2022-04-24 11:57:02
Writing application                      : HandBrake 1.5.1 2022011000
Comment                                  : Hooty tries to help King, Eda and Luz with their problems, but it doesn’t go as planned.

Video
ID                                       : 1
Format                                   : HEVC
Format/Info                              : High Efficiency Video Coding
Format profile                           : Main@L6.2@Main
Codec ID                                 : hvc1
Codec ID/Info                            : High Efficiency Video Coding
Duration                                 : 22 min 20 s
Bit rate                                 : 2 540 kb/s
Width                                    : 1 280 pixels
Height                                   : 720 pixels
Display aspect ratio                     : 16:9
Frame rate mode                          : Variable
Frame rate                               : 47.952 (47952/1000) FPS
Minimum frame rate                       : 23.974 FPS
Maximum frame rate                       : 90 000.000 FPS
Standard                                 : Component
Color space                              : YUV
Chroma subsampling                       : 4:2:0
Bit depth                                : 8 bits
Bits/(Pixel*Frame)                       : 0.057
Stream size                              : 406 MiB (94%)
Encoded date                             : UTC 2022-04-24 11:57:02
Tagged date                              : UTC 2022-04-24 11:57:02
Color range                              : Limited
Color primaries                          : BT.709
Transfer characteristics                 : BT.709
Matrix coefficients                      : BT.709
Codec configuration box                  : hvcC

Audio
ID                                       : 2
Format                                   : AAC LC
Format/Info                              : Advanced Audio Codec Low Complexity
Codec ID                                 : mp4a-40-2
Duration                                 : 22 min 21 s
Source duration                          : 22 min 21 s
Bit rate mode                            : Constant
Bit rate                                 : 161 kb/s
Channel(s)                               : 2 channels
Channel layout                           : L R
Sampling rate                            : 48.0 kHz
Frame rate                               : 46.875 FPS (1024 SPF)
Compression mode                         : Lossy
Stream size                              : 25.8 MiB (6%)
Source stream size                       : 25.8 MiB (6%)
Title                                    : Stereo
Language                                 : English
Default                                  : Yes
Alternate group                          : 1
Encoded date                             : UTC 2022-04-24 11:57:02
Tagged date                              : UTC 2022-04-24 11:57:02
mdhd_Duration                            : 1341696

Text
ID                                       : 3
Format                                   : Timed Text
Muxing mode                              : sbtl
Codec ID                                 : tx3g
Stream size                              : 2.00 Bytes (0%)
Language                                 : English
Default                                  : Yes
Forced                                   : No
Alternate group                          : 3
Encoded date                             : UTC 2022-04-24 11:57:02
Tagged date                              : UTC 2022-04-24 11:57:02
Screenshots:
Image error
Image error
Image error
Image error
Image error
Image error
Image error
Image error
Image error
Image error

  User comments    Sort newest first

No comments have been posted yet.



Post anonymous comment
  • Comments need intelligible text (not only emojis or meaningless drivel).
  • No upload requests, visit the forum or message the uploader for this.
  • Use common sense and try to stay on topic.

  • :) :( :D :P :-) B) 8o :? 8) ;) :-* :-( :| O:-D Party Pirates Yuk Facepalm :-@ :o) Pacman Shit Alien eyes Ass Warn Help Bad Love Joystick Boom Eggplant Floppy TV Ghost Note Msg


    CAPTCHA Image 

    Anonymous comments have a moderation delay and show up after 15 minutes



      Sitefriends