Torrent details for "Dragons'.Den.Season.18.Episode.12.H265.1080p.WEBRip.EzzRips"    Log in to bookmark

Torrent details
Cover
Download
Torrent rating (0 rated)
Controls:
Category:
Language:
English English
Total Size:
2.29 GB
Info Hash:
22cb3b66fc2015e075830c2e42d751d2d38f5037
Added By:
Added:  
14-05-2022 13:50
Views:
46
Health:
Seeds:
30
Leechers:
3
Completed:
91

Similar torrents

  No other torrents available yet for this episode. use IMDB search to search all torrents for this show
Title:
Genre:
Game-Show, Reality-TV
Runtime:
n/A    -    Rating: 6.8
Director:
n/A
Cast:
n/A
Plot:
n/A

Description
Season: 18
Episode: 12
Series: Dragons' Den
Air Date: June 24th, 2021
Genre: Game-Show, Reality-TV
IMDb Rating: 6.8/10 https://www.imdb.com/title/tt14923336/?ref_=ttep_ep12
Video Info:
Format                                   : MPEG-4
Format profile                           : Base Media / Version 2
Codec ID                                 : mp42 (mp42/iso2/mp41)
File size                                : 2.29 GiB
Duration                                 : 59 min 1 s
Overall bit rate mode                    : Variable
Overall bit rate                         : 5 558 kb/s
Movie name                               : Episode 12
Album                                    : Dragons' Den: Series 18
Album/Performer                          : BBC TV
Performer                                : BBC One
Composer                                 : BBC iPlayer
Genre                                    : Entertainment
Description                              : Featuring the inventors of a drumming training device and a culinary alcohol range.
Recorded date                            : 2021-06-24T21:00:00+01:00
Encoded date                             : UTC 2022-05-11 06:12:07
Tagged date                              : UTC 2022-05-11 06:12:07
Writing application                      : HandBrake 1.5.1 2022011000
Comment                                  : Featuring the inventors of a drumming training device and a culinary alcohol range.
LongDescription                          : Hoping to strike a deal tonight are the musical inventor of a drumming training device and an LA-born entrepreneur with a culinary alcohol product range. There is also a first-aid demonstration by four children who hope to boost their parents' chances of investment. Finally, a prototype shoe mechanism is sized up by the Dragons, but do they think the entrepreneurs' substantial expenditure on patents was a step in the wrong direction? /  / PLAY: https://www.bbc.co.uk/iplayer/episode/m000x9bk /  / INFO: https://www.bbc.co.uk/programmes/m000x9bk

Video
ID                                       : 1
Format                                   : HEVC
Format/Info                              : High Efficiency Video Coding
Format profile                           : Main@L6.2@Main
Codec ID                                 : hvc1
Codec ID/Info                            : High Efficiency Video Coding
Duration                                 : 59 min 1 s
Bit rate                                 : 5 391 kb/s
Width                                    : 1 920 pixels
Height                                   : 1 080 pixels
Display aspect ratio                     : 16:9
Frame rate mode                          : Constant
Frame rate                               : 50.000 FPS
Standard                                 : Component
Color space                              : YUV
Chroma subsampling                       : 4:2:0
Bit depth                                : 8 bits
Bits/(Pixel*Frame)                       : 0.052
Stream size                              : 2.22 GiB (97%)
Encoded date                             : UTC 2022-05-11 06:12:07
Tagged date                              : UTC 2022-05-11 06:12:07
Color range                              : Limited
Color primaries                          : BT.709
Transfer characteristics                 : BT.709
Matrix coefficients                      : BT.709
Codec configuration box                  : hvcC

Audio
ID                                       : 2
Format                                   : AAC LC
Format/Info                              : Advanced Audio Codec Low Complexity
Codec ID                                 : mp4a-40-2
Duration                                 : 59 min 1 s
Source duration                          : 59 min 1 s
Bit rate mode                            : Constant
Bit rate                                 : 161 kb/s
Channel(s)                               : 2 channels
Channel layout                           : L R
Sampling rate                            : 48.0 kHz
Frame rate                               : 46.875 FPS (1024 SPF)
Compression mode                         : Lossy
Stream size                              : 67.8 MiB (3%)
Source stream size                       : 67.8 MiB (3%)
Title                                    : Stereo
Language                                 : English
Default                                  : Yes
Alternate group                          : 1
Encoded date                             : UTC 2022-05-11 06:12:07
Tagged date                              : UTC 2022-05-11 06:12:07
mdhd_Duration                            : 3541035

Text
ID                                       : 3
Format                                   : Timed Text
Muxing mode                              : sbtl
Codec ID                                 : tx3g
Duration                                 : 58 min 29 s
Bit rate mode                            : Variable
Bit rate                                 : 172 b/s
Stream size                              : 73.7 KiB (0%)
Language                                 : English
Default                                  : Yes
Forced                                   : No
Alternate group                          : 3
Encoded date                             : UTC 2022-05-11 06:12:07
Tagged date                              : UTC 2022-05-11 06:12:07
Screenshots:
Image error
Image error
Image error
Image error
Image error
Image error
Image error
Image error
Image error
Image error

  User comments    Sort newest first

No comments have been posted yet.



Post anonymous comment
  • Comments need intelligible text (not only emojis or meaningless drivel).
  • No upload requests, visit the forum or message the uploader for this.
  • Use common sense and try to stay on topic.

  • :) :( :D :P :-) B) 8o :? 8) ;) :-* :-( :| O:-D Party Pirates Yuk Facepalm :-@ :o) Pacman Shit Alien eyes Ass Warn Help Bad Love Joystick Boom Eggplant Floppy TV Ghost Note Msg


    CAPTCHA Image 

    Anonymous comments have a moderation delay and show up after 15 minutes



      Sitefriends