Torrent details for "Iron Man 2008 Bonus BR EAC3 VFF ENG 1080p x265 10Bits T0M (Iron Man 1)"    Log in to bookmark

Loading...
Torrent details
Cover
Download
Torrent rating (0 rated)
Controls:
Category:
Language:
French French
Total Size:
7.45 GB
Info Hash:
43f241ff113694a0fe7b899c8d0c39a03bd3df14
Added By:
T0M:_trusted_uploader::_sitefriend::_sitelover::_junkie:  
Added:  
14-10-2021 01:39 (edited 14-10-2021 01:50) by T0M:_trusted_uploader::_sitefriend::_sitelover::_junkie:
Views:
198
Health:
Seeds:
30
Leechers:
0
Completed:
230

Similar torrents

Name 
DL
Uploader
Size 
S/L 
Added
-
1.14 GB
2,069
[14/4]
29/08/18 23:17
Uploaded by downloadhub:_trusted_user: Size 1.14 GBHealth [14/4]Added 29/08/18 23:17
-
13.25 GB
85
[13/5]
22/10/21 23:49
Uploaded by indexFroggy:_trusted_uploader: Size 13.25 GBHealth [13/5]Added 22/10/21 23:49
-
1,010.90 MB
7,072
[11/0]
21/06/21 16:00
Uploaded by GalaxyRG:_trusted_uploader: Size 1,010.90 MBHealth [11/0]Added 21/06/21 16:00
-
404.03 MB
1,327
[11/1]
11/05/20 19:22
Uploaded by B0NE:_trusted_uploader::_sitefriend: Size 404.03 MBHealth [11/1]Added 11/05/20 19:22
-
947.91 MB
208
[10/1]
23/09/21 15:33
Uploaded by bookrar:_trusted_uploader: Size 947.91 MBHealth [10/1]Added 23/09/21 15:33
-
19.48 GB
71
[10/5]
22/10/21 23:42
Uploaded by indexFroggy:_trusted_uploader: Size 19.48 GBHealth [10/5]Added 22/10/21 23:42
Title:
Iron Man (2008)
Genre:
Action, Adventure, Sci-Fi
Runtime:
126 min    -    Rating: 7.9
Director:
Plot:
Tony Stark. Genius, billionaire, playboy, philanthropist. Son of legendary inventor and weapons contractor Howard Stark. When Tony Stark is assigned to give a weapons presentation to an Iraqi unit led by Lt. Col. James Rhodes, he's given a ride on enemy lines. That ride ends badly when Stark's Humvee that he's riding in is attacked by enemy combatants. He survives - barely - with a chest full of shrapnel and a car battery attached to his heart. In order to survive he comes up with a way to miniaturize the battery and figures out that the battery can power something else. Thus Iron Man is born. He uses the primitive device to escape from the cave in Iraq. Once back home, he then begins work on perfecting the Iron Man suit. But the man who was put in charge of Stark Industries has plans of his own to take over Tony's technology for other matters.

Description

______________________________________________________________________________________________________________
Iron Man 1 2008
Bluray · 1080p x265 10bit · DD+ 5.1 VFF ENG
More Bonus (Disk Bonus)
¯¯¯¯¯¯¯¯¯¯¯¯¯¯¯¯¯¯¯¯¯¯¯¯¯¯¯¯¯¯¯¯¯¯¯¯¯¯¯¯¯¯¯¯¯¯¯¯¯¯¯¯¯¯¯¯¯¯¯¯¯¯¯¯¯¯¯¯¯¯¯¯¯¯¯¯¯¯¯¯

Image error

Year : 2008
Country : Image error United States
Original and English Title : Iron Man 1
French Title : Iron Man
Director : Jon Favreau
Writer : Mark Fergus, Hawk Ostby, Art Marcum, Matt Holloway, Stan Lee, Don Heck, Larry Lieber, Jack Kirby
Music from : Ramin Djawadi
Actors : Robert Downey Jr., Terrence Howard, Jeff Bridges, Gwyneth Paltrow, Leslie Bibb, Shaun Toub, Faran Tahir, Clark Gregg
Bill Smitrovich, Sayed Badreya
Genre : Super hero, Action, Adventure, Sci-Fi, CyberPunk
Certificate : Image error  From 10 years old
Budget : 140 000 000 $ · Recipe : 744 813 282 $ · ratio : 532 %
Link : Allociné 4,0/5 ·  IMDB 7,9/10 ·  TMDB 76% ·  SensCritique 6,6/10 ·  RottenTomatoes 94% (91%) ·  Wiki ·  Teaser

French Plot
Tony Stark, inventeur de génie, vendeur d'armes et playboy milliardaire, est kidnappé en Aghanistan. Forcé par ses ravisseurs de fabriquer une arme redoutable, il construit en secret une armure high-tech révolutionnaire qu'il utilise pour s'échapper. Comprenant la puissance de cette armure, il décide de l'améliorer et de l'utiliser pour faire régner la justice et protéger les innocents.
Adaptations des : Marvel Comics 1939

Bonus
...
Disk 2 - I Am Iron Man - 1h49mn - 2,02Gib - 1920x1080 HEVC 10Bits - VOSTFR - c2a323c9
Disk 2 - Wired - The Visual Effects - 27mn - 300,0Mib - 1920x1080 HEVC 10Bits - VOSTFR - 5a95a46e
Disk 2 - Tests - 6mn - 30,20Mib - 1920x1080 HEVC 10Bits - VOSTFR - 60c275ac
Disk 2 - Test Robert Downey Jr and Jeff Bridges - 4mn - 68,70Mib - 1920x1080 HEVC 10Bits - VOSTFR - 79785f36
Disk 2 - Onion News Network - 2mn - 22,40Mib - 1920x1080 HEVC 10Bits - VOSTFR - 69df21b7
Disk 2 - The Invincible Iron Man - 47mn - 471,0Mib - 1920x1080 HEVC 10Bits - VOSTFR - 014115ff
Disk 2 - Stan Lee and Robert Downey Jr - 1mn - 22,20Mib - 1920x1080 HEVC 10Bits - VOSTFR - 81b53142
...
43 bonus, total 3,60Gib 4h00mn

Marvel Cinematic Universe
2003 : Hulk + Bonus
Phase I
2008 : Iron Man + Bonus, The Incredible Hulk
2010 : Iron Man 2
2011 : Thor + Bonus, Captain America First Avenger + Bonus
2012 : Avengers
Phase II
2013 : Iron Man 3 + Bonus, Thor 2 The Dark World + Bonus
2014 : Captain America 2 The Winter Soldier + Bonus, Guardians of the Galaxy + Bonus
2015 : Avengers 2 Age of Ultron + Bonus, Ant-Man + Bonus
Phase III
2016 : Captain America 3 Civil War + Bonus, Doctor Strange
2017 : Guardians of the Galaxy 2 + Bonus, Spider-Man 1 Homecoming + Bonus, Thor 3 Ragnarok + Bonus
2018 : Black Panther + Bonus, Avengers 3 Infinity War + Bonus, Ant-Man 2 and the Wasp + Bonus
2019 : Captain Marvel + Bonus, Avengers 4 Endgame + Bonus, Spider-Man 2 Far From Home
Phase IV
2021 : Black Widow + Bonus

Image error
If you enjoy and wish to support, please stay in seeding


Technical Details
¯¯¯¯¯¯¯¯¯¯¯¯¯¯¯¯¯¯¯¯¯¯¯¯¯¯¯¯¯¯¯¯¯¯¯¯¯¯¯¯¯¯¯¯¯¯¯¯¯¯¯¯¯¯¯¯¯¯¯¯¯¯¯¯¯¯¯¯¯¯¯¯¯¯¯¯¯¯¯¯¯¯¯¯¯¯¯¯¯¯¯¯¯¯¯¯¯¯¯¯
Image error  Image error  Image error  Image error
Media
Matroska 3,85Gio 2h06mn 4370Kbps, Total 7,45Gio 6h06mn
Video
HEVC/H265 1920x800 @23.976 Main10@L4@Main 10bits 3450Kbps VerySlow qp25,34
Audio
Image error  Image error  True French 5.1 EAC3 448Kbps 48KHz 16bits
Image error  Image error  English (OV) 5.1 EAC3 448Kbps 48KHz 16bits
Subtitles
Image error  True French forced SRT
Image error  True French full SRT
Image error  True French forced PGS
Image error  True French full PGS
Image error  English forced PGS
Image error  English full PGS
Chapters
International
Screenshot
Image error    Image error    Image error    Image error

Image error    Image error    Image error    Image error

Image error    Image error    Image error    Image error
Origin
Bluray : AVC 1080p 35840Kbps, VFF 5.1 DTS-HDMA 1509Kbps, Anglais 5.1 DTS-HDMA 1509Kbps + Bonus Disk [Shadowman]

NFO
¯¯¯¯¯¯¯¯¯¯¯¯¯¯¯¯¯¯¯¯¯¯¯¯¯¯¯¯¯¯¯¯¯¯¯¯¯¯¯¯¯¯¯¯¯¯¯¯¯¯¯¯¯¯¯¯¯¯¯¯¯¯¯¯¯¯¯¯¯¯¯¯¯¯¯¯¯¯¯¯¯¯¯¯¯¯¯¯¯¯¯¯¯¯¯¯¯¯¯¯

General
Format                                   : Matroska
Format version                           : Version 4 / Version 2
File size                                : 3.85 GiB
Duration                                 : 2 h 6 min
Overall bit rate                         : 4 370 kb/s
Movie name                               : Iron Man 2008 de Jon Favreau avec Robert Downey Jr., Terrence Howard, Jeff Bridges, Gwyneth Paltrow, Leslie Bibb, Shaun Toub, Faran Tahir, Clark Gregg, Bill Smitrovich, Sayed Badreya. -10 ans (allocine=53751,imdb=tt0371746) T0M
Encoded date                             : UTC 2018-09-01 00:39:40
Writing application                      : mkvmerge v8.0.0 ('Til The Day That I Die') 64bit
Writing library                          : libebml v1.3.1 + libmatroska v1.4.2
Cover                                    : Yes
Attachments                              : Cover.jpg / Cover2.jpg / Cover3.jpg / Poster.jpg / Poster2.jpg / Poster3.png

Video
ID                                       : 1
Format                                   : HEVC
Format/Info                              : High Efficiency Video Coding
Format profile                           : Main 10@L4@Main
Codec ID                                 : V_MPEGH/ISO/HEVC
Duration                                 : 2 h 6 min
Bit rate                                 : 3 450 kb/s
Width                                    : 1 920 pixels
Height                                   : 800 pixels
Display aspect ratio                     : 2.40:1
Frame rate mode                          : Constant
Frame rate                               : 23.976 (24000/1001) FPS
Color space                              : YUV
Chroma subsampling                       : 4:2:0
Bit depth                                : 10 bits
Bits/(Pixel*Frame)                       : 0.094
Stream size                              : 3.04 GiB (79%)
Title                                    : Video HEVC 1920x800 @23.976 x265 Main10@L4@Main 10bits 3450kbps 2pass veryslow 2181mn
Writing library                          : x265 2.6:[Windows][GCC 7.3.0][64 bit] 10bit
Encoding settings                        : cpuid=1173503 / frame-threads=3 / numa-pools=8 / wpp / no-pmode / no-pme / no-psnr / no-ssim / log-level=2 / input-csp=1 / input-res=1920x800 / interlace=0 / total-frames=0 / level-idc=0 / high-tier=1 / uhd-bd=0 / ref=5 / no-allow-non-conformance / no-repeat-headers / annexb / no-aud / no-hrd / info / hash=0 / no-temporal-layers / open-gop / min-keyint=24 / keyint=240 / bframes=8 / b-adapt=2 / b-pyramid / bframe-bias=0 / rc-lookahead=40 / lookahead-slices=0 / scenecut=40 / no-intra-refresh / ctu=64 / min-cu-size=8 / rect / amp / max-tu-size=32 / tu-inter-depth=3 / tu-intra-depth=3 / limit-tu=4 / rdoq-level=2 / dynamic-rd=0.00 / no-ssim-rd / signhide / no-tskip / nr-intra=0 / nr-inter=0 / no-constrained-intra / strong-intra-smoothing / max-merge=4 / limit-refs=1 / limit-modes / me=3 / subme=4 / merange=57 / temporal-mvp / weightp / weightb / no-analyze-src-pics / deblock=0:0 / sao / no-sao-non-deblock / rd=6 / no-early-skip / rskip / no-fast-intra / no-tskip-fast / no-cu-lossless / b-intra / no-splitrd-skip / rdpenalty=0 / psy-rd=2.00 / psy-rdoq=1.00 / no-rd-refine / analysis-reuse-mode=0 / no-lossless / cbqpoffs=0 / crqpoffs=0 / rc=abr / bitrate=3450 / qcomp=0.60 / qpstep=4 / stats-write=0 / stats-Read=2 / cplxblur=20.0 / qblur=0.5 / ipratio=1.40 / pbratio=1.30 / aq-mode=1 / aq-strength=1.00 / cutree / zone-count=0 / no-strict-cbr / qg-size=32 / no-rc-grain / qpmax=69 / qpmin=0 / no-const-vbv / sar=1 / overscan=0 / videoformat=5 / range=0 / colorprim=1 / transfer=1 / colormatrix=1 / chromaloc=0 / display-window=0 / max-cll=0,0 / min-luma=0 / max-luma=1023 / log2-max-poc-lsb=8 / vui-timing-info / vui-hrd-info / slices=1 / no-opt-qp-pps / no-opt-ref-list-length-pps / no-multi-pass-opt-rps / scenecut-bias=0.05 / no-opt-cu-delta-qp / no-aq-motion / no-hdr / no-hdr-opt / no-dhdr10-opt / analysis-reuse-level=5 / scale-factor=0 / refine-intra=0 / refine-inter=0 / refine-mv=0 / no-limit-sao / ctu-info=0 / no-lowpass-dct / refine-mv-type=0 / copy-pic=1
Default                                  : Yes
Forced                                   : No
Color range                              : Limited
Color primaries                          : BT.709
Transfer characteristics                 : BT.709
Matrix coefficients                      : BT.709

Audio #1
ID                                       : 2
Format                                   : E-AC-3
Format/Info                              : Enhanced Audio Coding 3
Codec ID                                 : A_EAC3
Duration                                 : 2 h 6 min
Bit rate mode                            : Constant
Bit rate                                 : 448 kb/s
Channel(s)                               : 6 channels
Channel positions                        : Front: L C R, Side: L R, LFE
Sampling rate                            : 48.0 kHz
Frame rate                               : 187.500 FPS (256 SPF)
Compression mode                         : Lossy
Delay relative to video                  : 5 ms
Stream size                              : 404 MiB (10%)
Title                                    : Français 5.1 EAC3 448kbps 48khz 16bits
Language                                 : French
Service kind                             : Complete Main
Default                                  : Yes
Forced                                   : No

Audio #2
ID                                       : 3
Format                                   : E-AC-3
Format/Info                              : Enhanced Audio Coding 3
Codec ID                                 : A_EAC3
Duration                                 : 2 h 6 min
Bit rate mode                            : Constant
Bit rate                                 : 448 kb/s
Channel(s)                               : 6 channels
Channel positions                        : Front: L C R, Side: L R, LFE
Sampling rate                            : 48.0 kHz
Frame rate                               : 187.500 FPS (256 SPF)
Compression mode                         : Lossy
Delay relative to video                  : 5 ms
Stream size                              : 404 MiB (10%)
Title                                    : English 5.1 EAC3 448kbps 48khz 16bits
Language                                 : English
Service kind                             : Complete Main
Default                                  : No
Forced                                   : No

Text #1
ID                                       : 4
Format                                   : UTF-8
Codec ID                                 : S_TEXT/UTF8
Codec ID/Info                            : UTF-8 Plain Text
Duration                                 : 2 h 6 min
Bit rate                                 : 1 b/s
Count of elements                        : 57
Stream size                              : 1.32 KiB (0%)
Title                                    : Français forcé (Passages)
Language                                 : French
Default                                  : Yes
Forced                                   : Yes

Text #2
ID                                       : 5
Format                                   : UTF-8
Codec ID                                 : S_TEXT/UTF8
Codec ID/Info                            : UTF-8 Plain Text
Duration                                 : 2 h 6 min
Bit rate                                 : 43 b/s
Count of elements                        : 1363
Stream size                              : 39.8 KiB (0%)
Title                                    : Français complet (Tous le film)
Language                                 : French
Default                                  : No
Forced                                   : No

Text #3
ID                                       : 6
Format                                   : PGS
Muxing mode                              : zlib
Codec ID                                 : S_HDMV/PGS
Codec ID/Info                            : Picture based subtitle format used on BDs/HD-DVDs
Duration                                 : 8 min 38 s
Bit rate                                 : 1 771 b/s
Count of elements                        : 50
Stream size                              : 112 KiB (0%)
Title                                    : Français forcé (Passages) PGS
Language                                 : French
Default                                  : No
Forced                                   : No

Text #4
ID                                       : 7
Format                                   : PGS
Muxing mode                              : zlib
Codec ID                                 : S_HDMV/PGS
Codec ID/Info                            : Picture based subtitle format used on BDs/HD-DVDs
Duration                                 : 1 h 55 min
Bit rate                                 : 8 870 b/s
Count of elements                        : 2678
Stream size                              : 7.35 MiB (0%)
Title                                    : Français complet (Tous le film) PGS
Language                                 : French
Default                                  : No
Forced                                   : No

Text #5
ID                                       : 8
Format                                   : PGS
Muxing mode                              : zlib
Codec ID                                 : S_HDMV/PGS
Codec ID/Info                            : Picture based subtitle format used on BDs/HD-DVDs
Duration                                 : 1 h 3 min
Bit rate                                 : 243 b/s
Count of elements                        : 74
Stream size                              : 113 KiB (0%)
Title                                    : English forced PGS
Language                                 : English
Default                                  : No
Forced                                   : No

Text #6
ID                                       : 9
Format                                   : PGS
Muxing mode                              : zlib
Codec ID                                 : S_HDMV/PGS
Codec ID/Info                            : Picture based subtitle format used on BDs/HD-DVDs
Duration                                 : 2 h 4 min
Bit rate                                 : 10.4 kb/s
Count of elements                        : 2678
Stream size                              : 9.28 MiB (0%)
Title                                    : English full PGS
Language                                 : English
Default                                  : No
Forced                                   : No

Menu
00:00:00.000                             : :01 - 00:00:00
00:04:23.221                             : :02 - 00:04:23
00:09:15.054                             : :03 - 00:09:15
00:12:32.793                             : :04 - 00:12:32
00:14:24.363                             : :05 - 00:14:24
00:16:31.657                             : :06 - 00:16:31
00:19:20.909                             : :07 - 00:19:20
00:23:19.147                             : :08 - 00:23:19
00:26:09.985                             : :09 - 00:26:09
00:28:25.745                             : :10 - 00:28:25
00:31:42.108                             : :11 - 00:31:42
00:41:00.833                             : :12 - 00:41:00
00:46:37.419                             : :13 - 00:46:37
00:49:22.960                             : :14 - 00:49:22
00:52:45.495                             : :15 - 00:52:45
00:56:21.169                             : :16 - 00:56:21
01:01:19.092                             : :17 - 01:01:19
01:05:02.064                             : :18 - 01:05:02
01:07:39.430                             : :19 - 01:07:39
01:15:10.881                             : :20 - 01:15:10
01:19:32.934                             : :21 - 01:19:32
01:25:46.141                             : :22 - 01:25:46
01:28:37.603                             : :23 - 01:28:37
01:35:07.118                             : :24 - 01:35:07
01:40:59.178                             : :25 - 01:40:59
01:49:07.374                             : :26 - 01:49:07
01:53:38.478                             : :27 - 01:53:38
01:57:26.789                             : :28 - 01:57:26
01:58:47.830                             : :29 - 01:58:47
02:05:19.770                             : :30 - 02:05:19



  User comments

No comments have been posted yet.


Post anonymous comment
  • Comments need intelligible text (not only emojis or meaningless drivel).
  • No upload requests, visit the forum or message the uploader for this.
  • Use common sense and try to stay on topic.

  • :) :( :D :P :-) B) 8o :? 8) ;) :-* :-( :| O:-D Party Pirates Yuk Facepalm :-@ :o) Pacman Shit Alien eyes Ass Warn Help Bad Love Joystick Boom Eggplant Floppy TV Ghost Note Msg


    CAPTCHA Image 

    Anonymous comments have a moderation delay and show up after 15 minutes

      Sitefriends