Torrent details for "Freaky (2020) [Hindi Dub] BDRip Saicord"    Log in to bookmark

Loading...
Torrent details
Please be advised this upload has ads cut or watermarked into the video. click here for more info
Cover
Download
Torrent rating (0 rated)
Controls:
Category:
Language:
Hindi Hindi
Total Size:
1.21 GB
Info Hash:
6cad52170b827e84ea1af1e493307eab417852bf
Added By:
Added:  
26-07-2021 10:09
Views:
282
Health:
Seeds:
5
Leechers:
7
Completed:
20

Similar torrents

Name 
DL
Uploader
Size 
S/L 
Added
797.39 MB
26,978
[152/16]
03/12/20 11:15
Uploaded by GalaxyRG:_trusted_uploader: Size 797.39 MBHealth [152/16]Added 03/12/20 11:15
-
1.13 GB
1,735
[15/3]
13/03/21 03:06
Uploaded by TGxTV:_trusted_uploader: Size 1.13 GBHealth [15/3]Added 13/03/21 03:06
-
1.41 GB
2,622
[14/3]
03/12/20 10:47
Uploaded by TGxMovies:_trusted_uploader: Size 1.41 GBHealth [14/3]Added 03/12/20 10:47
-
1.27 GB
990
[11/5]
10/02/20 15:55
Uploaded by trueHD Size 1.27 GBHealth [11/5]Added 10/02/20 15:55
-
12.78 GB
979
[11/4]
28/01/21 05:35
Uploaded by TGxMovies:_trusted_uploader: Size 12.78 GBHealth [11/4]Added 28/01/21 05:35
-
1.89 GB
958
[9/0]
30/03/21 14:55
Uploaded by MIRCrewRS:_trusted_uploader::_sitefriend: Size 1.89 GBHealth [9/0]Added 30/03/21 14:55
Title:
Freaky (2020)
Genre:
Comedy, Horror, Thriller
Runtime:
101 min    -    Rating: 6.9
Plot:
After swapping bodies with a deranged serial killer, a young girl in high school discovers she has less than 24 hours before the change becomes permanent.

Description
Image error

https://youtu.be/EqPnIcDW9g0

Image error
Image error
Image error
Image error

Video
ID                                       : 1
Format                                   : AVC
Format/Info                              : Advanced Video Codec
Format profile                           : High@L4.2
Format settings                          : CABAC / 4 Ref Frames
Format settings, CABAC                   : Yes
Format settings, Reference frames        : 4 frames
Codec ID                                 : V_MPEG4/ISO/AVC
Duration                                 : 1 h 43 min
Bit rate                                 : 1 476 kb/s
Width                                    : 720 pixels
Height                                   : 302 pixels
Display aspect ratio                     : 2.40:1
Frame rate mode                          : Constant
Frame rate                               : 23.976 (24000/1001) FPS
Standard                                 : NTSC
Color space                              : YUV
Chroma subsampling                       : 4:2:0
Bit depth                                : 8 bits
Scan type                                : Progressive
Bits/(Pixel*Frame)                       : 0.283
Stream size                              : 1.07 GiB (89%)
Language                                 : English
Default                                  : Yes
Forced                                   : No
Color range                              : Limited
Color primaries                          : BT.601 NTSC
Transfer characteristics                 : BT.601
Matrix coefficients                      : BT.601

Audio
ID                                       : 2
Format                                   : AAC LC
Format/Info                              : Advanced Audio Codec Low Complexity
Codec ID                                 : A_AAC-2
Duration                                 : 1 h 43 min
Bit rate                                 : 192 kb/s
Channel(s)                               : 2 channels
Channel layout                           : L R
Sampling rate                            : 48.0 kHz
Frame rate                               : 46.875 FPS (1024 SPF)
Compression mode                         : Lossy
Stream size                              : 140 MiB (11%)
Language                                 : Hindi
Default                                  : Yes
Forced                                   : No

  User comments

No comments have been posted yet.


Post anonymous comment
  • Comments need intelligible text (not only emojis or meaningless drivel).
  • No upload requests, visit the forum or message the uploader for this.
  • Use common sense and try to stay on topic.

  • :) :( :D :P :-) B) 8o :? 8) ;) :-* :-( :| O:-D Party Pirates Yuk Facepalm :-@ :o) Pacman Shit Alien eyes Ass Warn Help Bad Love Joystick Boom Eggplant Floppy TV Ghost Note Msg


    CAPTCHA Image 

    Anonymous comments have a moderation delay and show up after 15 minutes

      Sitefriends